This file was generated by Ched 2.7.0.0.
#TITLE ""
#ARTIST ""
#DESIGNER ""
#DIFFICULTY 0
#PLAYLEVEL
#SONGID ""
#WAVE ""
#WAVEOFFSET 0
#JACKET ""
#REQUEST "ticks_per_beat 480"
#00002: 4
#BPM01: 148
#00008: 01
#TIL00: ""
#HISPEED 00
#MEASUREHS 00
#00114:00140000
#00118:0014
#00112:00000014
#0011a:24
#00218:14
#00214:00140000
#00318:00140000
#00314:0014
#0031a:00000014
#00312:24
#00414:14
#00418:00140000
#00518:0014
#00514:00000014
#0061a:14
#00612:00140000
#00618:0014
#00614:00000014
#00918:14
#00914:00140000
#0091a:0014
#00912:00000014
#01018:14
#01014:00140000
#0101a:0014
#01012:00000014
#01118:14343434
#0111a:0000000000000014
#01314:0014
#01318:00000014
#01312:14
#0131a:00140000
#01310:41
#01412:14
#0141a:00140000
#01414:0014
#01418:00000014
#01714:14
#01718:00140000
#01712:0014
#0171a:00000014
#01814:14
#01818:00140000
#01812:0014
#0181a:00000014
#01914:14343434
#01912:0000000000000014
#0211a:14140000
#02114:00001414
#02218:14140000
#02212:00001414
#02210:0000000000000041
#0251a:1414
#02514:00140014
#02618:1414
#02612:00140014
#0271a:14
#02716:00140000
#02914:00140000
#02918:0014
#02912:00000014
#03018:1414
#03012:00140000
#03014:00000014
#03218:14
#03214:00140000
#0321a:0014
#03210:0000000000000041
#03318:0014
#03314:00000014
#0341a:14
#03414:00140000
#03418:0014
#03412:00000014
#0351a:14
#03514:00140014
#03518:0000000014000014
#03718:00140000
#03714:0014
#0371a:00000014
#03814:1414
#0381a:00140000
#03818:00000014
#04014:14
#04018:00140000
#04012:0014
#04114:0014
#04118:00000014
#04212:14
#04218:00140000
#04214:0014
#0421a:00000014
#04312:14
#04318:00140000
#04314:0014
#03614:0014000000000024
#03618:00140000
#04414:0014
#04418:00000014
#04518:00140000
#04514:0014
#0451a:00000014
#04512:24
#04510:41
#04614:1414
#0461a:00140000
#04618:00000014
#04712:14
#04718:00140000
#04714:0014
#0471a:00000014
#04812:00000014
#04914:00140000
#05018:1414
#05014:00140014
#0511a:14
#05118:0014
#0521a:14
#05218:0014
#05316:0014
#05412:14
#05416:0014
#0541a:14
#05512:14
#05514:0014
#0551f:00110000
#05612:14
#05614:0014
#05716:0014
#0581a:14
#05912:14
#05918:00140000
#05914:0014
#0591a:00000014
#06012:14
#06018:00140000
#06014:0014
#0601a:00000014
#06312:00140014
#06318:0014
#0641a:1414
#06414:00140014
#0651a:14
#06518:00343400
#06618:00000014
#06612:0000002400000000
#0661f:0000002100000000
#06714:1414
#0671a:00140014
#06710:0000004100000000
#06814:14
#06818:00140000
#06914:0014
#06918:00000014
#07012:14
#07114:14
#07118:00140014
#07112:0014
#07214:14
#0721a:00140000
#07212:0014
#07218:00000014
#07314:14
#07414:14
#07418:00140000
#07412:00000014
#07518:14
#07514:00140014
#0751a:0014
#0761a:14
#07614:00140000
#07618:0014
#07812:00000014
#07810:41
#07918:1414
#07912:00140000
#07914:00000014
#0801a:1414
#08014:00140000
#08112:0000001400000000
#0821a:0014
#08214:00000014
#08318:14
#08312:00140000
#0831a:0014
#08314:00000014
#08418:14
#08412:00140000
#08714:0014002400000000
#08718:00140000
#0281a:0000000000000024
#08614:0000002400000000
#08618:00000024
#01218:34343400
#02014:34343400
#06112:0000003400000034
#08514:00000000000000000000003434003434
#0015a:14
#00352:14
#01158:54
#0115a:0000000000000024
#01954:64
#01952:0000000000000024
#0285a:0000000000000014
#0325a:0014
#03654:0000000000000014
#03658:00140000
#04052:0014
#04852:00000054
#04954:00240000
#0515a:54
#05158:0054
#0525a:54
#05258:0054
#05552:64
#05554:0064
#05652:64
#05654:0064
#0585a:54
#0655a:54
#06652:0000001400000000
#07052:14
#07454:14
#07458:00140000
#08152:0000005400000000
#08654:0000001400000000
#08658:00000014
#08754:0000001400000000
#0023a0:00001424
#004320:0000000014343434
#005320:00240000
#0073a0:14
#007380:00240000
#007320:0014
#007340:00000024
#008380:14
#0083a0:00240000
#008340:0014
#008320:00000024
#011380:14343434
#0113a0:0000000000000054
#012380:34343424
#015320:14
#015340:00240000
#0153a0:0014
#015380:00000024
#016340:14
#016320:00240000
#016380:0014
#0163a0:00000024
#019340:14343434
#019320:0000000000000054
#020340:34343424
#0233a0:14240000
#023340:00001424
#024380:14240000
#024320:00001424
#027320:00000000000000001400003400003400
#028320:0034240000000000
#0283a0:00000000000000001434343434342400
#0313a0:14
#031380:00240000
#031320:0014
#031340:00000024
#032320:0000000000001434
#033320:0034240000000000
#036340:0000000000143424
#039320:14
#039340:00240000
#0393a0:0014
#039380:00000024
#0403a0:0000000000001434
#0413a0:0034240000000000
#0433a0:0000000000001434
#0443a0:0034240000000000
#048320:1400003400003400
#049340:00540000
#049320:00000024
#0513a0:14
#051380:0034
#0523a0:34
#052380:0034
#0533a0:24
#055320:14
#055340:0034
#056320:34
#056340:0034
#057320:24
#0583a0:14
#058380:0024
#061320:1400003400000034
#062340:0000002400000000
#062380:0000000000143424
#0653a0:14
#065380:00343424
#066320:1400342400000000
#068320:0014
#068340:00000024
#0693a0:14
#069380:00240000
#0703a0:0000143400342400
#0733a0:0000143400342400
#076320:00000014
#077340:24
#0773a0:00140000
#077380:0024
#077340:00000014
#078320:24
#078380:00140000
#0783a0:0024
#080320:00000014
#081320:3400343400000000
#082340:24
#0843a0:00001424
#085340:14000000000034000000343434003434
#085320:00000000000000000000000000340000
#086340:3434342400000000
