This file was generated by Ched 2.6.4.0.
#TITLE ""
#ARTIST ""
#DESIGNER ""
#DIFFICULTY 0
#PLAYLEVEL
#SONGID ""
#WAVE ""
#WAVEOFFSET 0
#JACKET ""
#REQUEST "ticks_per_beat 480"
#00002: 4
#BPM01: 138
#00008: 01
#TIL00: ""
#HISPEED 00
#MEASUREHS 00
#0011a:14
#0021a:14
#00312:14
#00412:14
#00518:14
#00618:14
#00714:14
#00814:14
#0091a:14
#00910:41
#01012:14
#0111a:14
#01212:14
#01318:14
#01414:14
#01518:14
#01614:14
#0251a:14
#02510:41
#02612:14
#02718:14
#02814:14
#0291a:14
#03012:14
#03118:14
#03214:14
#0331a:14
#03412:14
#03518:2616
#03510:41
#03612:1616
#03812:16
#03818:0016
#03912:2616
#04018:1616
#04218:16
#04212:0016
#04718:14
#04710:41
#04818:14
#04914:14
#05014:14
#0511a:14
#0521a:14
#05312:14
#05412:14
#06312:0016
#06318:26
#0631f:21
#06418:16
#06412:0016
#06410:41
#06612:16
#06618:0016
#06718:0016
#06712:26
#06812:16
#06818:0016
#07018:16
#07012:0016
#0551f:11
#01710:41
#0173a0:14
#0183a0:24
#019320:14
#020320:24
#021380:14
#022380:24
#023340:14
#024340:24
#037380:1626
#041320:1626
#0433a0:14
#0443a0:24
#045320:14
#046320:24
#0553a0:14
#056380:24
#057320:14
#058340:24
#059380:14
#0603a0:24
#061340:14
#062320:24
#065380:1626
#069320:1626
#071380:14
#072380:24
#073340:14
#074340:24
#0753a0:14
#0763a0:24
#077320:14
#078320:34000024
