This file was generated by Ched 2.6.4.0.
#TITLE ""
#ARTIST ""
#DESIGNER ""
#DIFFICULTY 0
#PLAYLEVEL
#SONGID ""
#WAVE ""
#WAVEOFFSET 0
#JACKET ""
#REQUEST "ticks_per_beat 480"
#00002: 4
#BPM01: 138
#00008: 01
#TIL00: ""
#HISPEED 00
#MEASUREHS 00
#0551f:11
#05516:0000000000000012
#05518:0000001200000000
#0551c:0000000000000012
#05512:0000001200000000
#06316:0000000013000013
#06317:1300001300000000
#06312:1300002300000000
#06319:00130013
#06314:00130013
#0631b:0000000013000023
#0631f:21
#06216:0000001200001313
#0621b:0000000000001323
#06214:0012
#06218:00120000
#0621a:0012000000000000
#07415:0000001300000000
#07418:00130000
#07412:0000000000001313
#0741b:0013000013000000
#06518:0000001300000013
#0651b:0013000013000000
#06515:0000000000130000
#06512:00130013
#0661b:1313
#06612:0013000013002323
#06618:0000001300000000
#06615:00130000
#06617:0000000000002323
#03018:1313
#03015:0013001300000000
#03012:0000130000000013
#02615:1313
#02618:0013001300000000
#0261b:0000130000000013
#0291b:1300000000000013
#02912:0000001313000000
#02916:13
#02512:1300000000000013
#0251b:0000001313000000
#02517:13
#02510:41
#06016:0012000000000000
#0601c:0012000000000000
#0601b:0000000000130000
#06018:00000000000000000000000000130000
#06015:0000000000001313
#0601a:00320000
#06014:00320000
#05618:0012000000000000
#05612:0012000000000000
#05614:00320000
#0561a:00320000
#0781b:0013000013000000
#07812:0013
#07815:0000001300000000
#07818:00130000
#06717:0000000013000023
#06712:0000000013000023
#06716:1300002300000000
#0671b:1300002300000000
#06719:00230023
#06714:00230023
#06412:1300130000131313
#06417:13000000130000000000000000130000
#06416:0000001300000000
#0641b:0000002300000000
#06410:41
#0391b:0000132300000013
#03912:0000001300001323
#03917:00000000000000000013000000000000
#03916:00130000000000000000000000000000
#03512:0000132300000013
#0351b:0000001300001323
#03516:00000000000000000013000000000000
#03517:00130000000000000000000000000000
#03510:41
#02216:1313
#0221b:1313
#02217:00130000
#02212:0000130000000013
#02214:0000001300000000
#02219:0013000000000000
#01817:1313
#01812:1313
#01816:00130000
#0181b:0000130000000013
#01819:0000001300000000
#01814:0013000000000000
#01412:0013000000001414
#0141a:0000000000001414
#01417:13
#01416:0000000000140000
#01418:0000001300000000
#01415:00130000
#01516:14140000
#0151a:0000001400000000
#01512:0014000000130000
#01518:0000000000000013
#01515:00000013
#0131b:0000000000001313
#01318:1200001200130000
#01315:0000000000001313
#01316:00120000
#01314:0012000000000000
#01216:0000000000001212
#0121c:0000000000001212
#01212:13131300
#0121b:13131300
#01215:0000001300000000
#01218:0013000000000000
#0101a:0000000000001414
#01012:0000000000001414
#01016:1300000000140000
#01015:0000001300000000
#01018:00130000
#0101b:0013000000000000
#01116:14140000
#01112:0000001400000000
#0111a:0014000000000000
#01115:0000000000000013
#01118:00000013
#0111b:0000000000130000
#00912:0000000000001313
#00916:1200001200000000
#00918:0000120000001313
#00915:0000000000130000
#0091a:0012000000000000
#00910:41
#00818:0000130000002212
#00812:0000000023002212
#00815:0000001300000000
#0081b:0013000023000000
#0161b:13131313
#01612:13131313
#01618:0000001300000000
#01615:0013000000000013
#0381b:0013
#03812:0013000013001323
#03817:0000000000001323
#03818:0000001300000000
#03815:00130000
#0421b:0000000013001313
#04212:0013000013000000
#04218:0000001300000000
#04215:00130000
#04216:0000000000001313
#05918:0000000000000012
#05916:0000001200000000
#05912:0000000000000012
#0591c:0000001200000000
#05812:0000000000001212
#05818:0000001200001212
#0581a:0012
#05816:00120000
#05814:0012000000000000
#03617:0000001300000000
#03616:0000130000001313
#03619:00000000000000000000000000130000
#0361b:0000130000130000
#03612:0013002300000000
#02112:1300001300000013
#02115:00130013
#02118:0013000000130000
#0211b:1313
#06917:00000013
#06916:0013
#06912:0013002300000023
#06912:0013000000000000
#0691b:0000130000230000
#04112:00130000
#0411b:0013000000000000
#04017:00000000130000000000001300000000
#04016:0000001300000013
#04019:00000000000000000000000000130000
#04014:00000013
#04012:0000130000130000
#0401b:0013002300000000
#06112:0000000000000012
#06118:0012000000120000
#0611c:0000001200000000
#06116:00120000
#0571c:0000000000000012
#05716:0012000000120000
#05712:0000001200000000
#05718:00120000
#0521b:0013001300000013
#05217:00001313
#05212:0000000000130013
#05216:00130000
#04812:0013001300000013
#04816:0013
#0481b:0000000000130013
#04817:00130013
#04517:0000001300000000
#0451b:00001300000000000000333333331300
#04512:0000000000000013
#04519:00000000130000003300000000000033
#04518:00000000000000330000000000000000
#0451a:00000000000000000033000000000000
#04412:00001300000000000013000000000000
#04416:0000001300000013
#0441b:0000000000001313
#04414:00130000
#0431b:00001300000000000013000000000000
#04317:0000001300000013
#04312:0000000000001313
#04319:00130000
#02315:13131313
#02312:0000001300000013
#02318:0013000000130000
#0231b:1313
#02018:0000000000000013
#0201b:13
#02016:13
#02412:13000023
#02417:13
#0241b:00000023
#07016:13
#0701b:0013000023001313
#07015:0000001300000000
#07018:00130000
#07012:0023
#0761b:0013000000130013
#07615:00000000000013000000000000130000
#07618:00130013
#07612:00000000000000000000001300000000
#07718:00130000
#07712:0013000000000000
#0751b:0000131300000000
#07518:0013000000000000
#07512:0000000000001313
#0721b:0000000000000013
#07218:0000001300001300
#07212:0013000000130000
#07215:00000000130000000000000000130000
#07112:0000131300000000
#0711b:0000000000001313
#07312:0013000000000000
#07318:00130000
#0731b:0000000000130000
#07317:0000000000000013
#00612:0000000000000013
#00615:0000001300001300
#0061b:0013000000130000
#00618:00000000130000000000000000130000
#0071b:0013000000000000
#00718:00000013
#00715:0000130000130000
#0041b:0013000013000000
#00418:00130000
#00415:0000001300000000
#00412:0000000000001313
#0021b:0000000000000013
#00218:0000001300001300
#00212:0013000000130000
#00215:00000000130000000000000000130000
#00112:0000131300000000
#0011b:0000000000001313
#0001b:0000000000001313
#00312:0013000000000000
#00318:00130000
#0031b:0000000000130000
#00317:0000000000000013
#0051b:0000131300000000
#00512:0000000000001313
#06816:13000000230000000000001300130000
#0681b:1300230000131323
#06812:0000002300000000
#06817:0000002300000000
#03112:1300000000130013
#03117:13000013
#03116:00131300
#0311b:0013001313000000
#01918:13131313
#0191b:0000001300000013
#01915:0013000000130000
#01912:1313
#05315:3333331333333300
#05318:3333331333333300
#02815:0000001300000000
#02817:0013000013000000
#02812:00001323
#02814:00130000
#02819:00130000
#0281b:13000023
#02816:13
#0541c:0000000000001212
#05416:0000000000001212
#05412:0023000023000000
#05414:0000002300000000
#05413:00230000
#0541b:0023000023000000
#05419:0000002300000000
#0541a:00230000
#05112:0000000000130013
#05117:00000013
#0511b:0013001300000000
#05116:00130000
#05012:0000001313001313
#0501b:0013000013000000
#0491b:0000001300130013
#04912:0013000000130013
#04915:00000013
#04918:0013
#0471b:0000000000130013
#04716:00000013
#04712:0013001300000000
#04717:00130000
#04710:41
#0461b:0000000000001313
#04618:00330000000000000000000000000000
#04615:33
#03712:00130000
#0371b:0013000000000000
#03416:0000000000001323
#0341b:0000002323001323
#03412:0000002323000000
#03419:0023230000000000
#03414:0023230000000000
#03315:0000130000130013
#03318:00130013
#03312:13
#0331b:13
#0321a:00130013
#03219:0013
#03213:00130013
#03214:0013
#0321b:23
#03212:23
#0271b:1300000000130013
#02716:13000013
#02717:00131300
#02712:0013001313000000
#0171b:2300001300000013
#01718:00130013
#01715:0013000000130000
#01712:2313
#01710:41
#02456:0013
#0245b:0013
#02452:63
#02457:63
#02057:0013
#02052:0013
#0205b:53
#02056:53
#06756:2300006300000000
#0675b:2300006300000000
#06757:0000000023000053
#06752:0000000023000053
#0625b:0000000000000063
#06256:0000000000000063
#06254:0012
#0635b:0000000023000063
#06352:2300005300000000
#06356:0000000023000063
#06357:2300005300000000
#0695b:0000000000630000
#06952:0000005300000053
#06957:00000023
#06956:0023
#0705b:0000000013000053
#07052:0013
#07056:23
#0685b:2300000000000063
#06852:0000005300000000
#06856:23
#03857:0000000000000013
#03852:0000000013000053
#0385b:0013
#0405b:0000006300000000
#04056:0000000000000063
#03952:0000000000000053
#0395b:0000006300000000
#03957:00000000000000000023000000000000
#03956:00230000000000000000000000000000
#03456:0000000000000013
#0345b:0000000013000063
#03452:0013
#06652:0000000013000053
#06657:0000000000000053
#0665b:2313
#0645b:0000006300000000
#06452:2300000000000053
#06457:23
#03652:0000005300000000
#03656:0000000000000063
#0355b:0000000000000063
#03552:0000005300000000
#03556:00000000000000000023000000000000
#03557:00230000000000000000000000000000
#05452:0013
#0545b:0013
#0545c:0000000000000062
#05456:0000000000000062
#0745b:0053
#07452:0000000000000063
#06558:0000005300000053
#0655b:0023
#06555:0000000000630000
#06552:00000023
#03058:0053
#02655:0063
#02952:0063
#0295b:53
#0255b:0053
#02552:63
#06056:0062000000000000
#0605c:0052000000000000
#05658:0052000000000000
#05652:0062000000000000
#0785b:0063
#07852:0053
#02256:0053
#0225b:0053
#01857:0063
#01852:0063
#01556:24
#01457:23
#0145a:0000000000000054
#01358:22
#0135b:0000000000000053
#0125c:0000000000000052
#0125b:0013
#01156:24
#01056:23
#01052:0000000000000064
#00956:22
#00952:0000000000000063
#00852:0000000000000062
#01652:0013
#0425b:0013
#04252:0013
#04256:0000000000000053
#05958:0000000000000052
#05956:0000006200000000
#05952:0000000000000062
#0595c:0000005200000000
#05852:0000000000000052
#05858:0000000000000052
#0585a:0012
#06152:0000000000000062
#06158:0000000000620000
#0615c:0000005200000000
#0575c:0000000000000052
#05756:0000000000520000
#05752:0000006200000000
#0525b:0000005300000063
#05257:0023
#05252:0000000000000053
#04852:0000006300000000
#04856:0023
#0485b:0000000000000053
#04557:0000005300000000
#0455b:0000000000000063
#04552:0000000000000053
#04452:00000000000000000023000000000000
#04456:0000005300000053
#0435b:00000000000000000023000000000000
#04357:0000006300000063
#0765b:0000000000000053
#07655:0000005300000000
#0755b:0000005300000000
#07552:0000000000000063
#0725b:0000000000000053
#07258:0000006300000000
#07152:0000005300000000
#0715b:0000000000000053
#00652:0000000000000063
#00655:0000005300000000
#0045b:0053
#00452:0000000000000063
#0025b:0000000000000053
#00258:0000006300000000
#00152:0000005300000000
#0015b:0000000000000053
#0005b:0000000000000053
#0055b:0000006300000000
#00552:0000000000000063
#05355:0000002300000000
#05358:0000002300000000
#05556:0000000000000062
#05558:0000005200000000
#0555c:0000000000000052
#05552:0000006200000000
#05152:0000000000000023
#0515b:0000005300000000
#05052:0000000013000023
#0505b:0053000013000000
#04952:0063000000000063
#0475b:0000000000000023
#04752:0000006300000000
#0465b:0000000000000023
#03355:00230000
#03352:63
#03358:00230000
#0335b:53
#02857:0013
#02852:0013
#0003b0:0000000000000013
#001370:00230000
#001320:0000001300000000
#001360:00000023
#0013b0:0000000000000013
#002380:0023000000000000
#002380:0000001300000000
#0023b0:0000000000230000
#0023b0:0000000000000013
#003380:0023000000000000
#003320:0000001300000033
#003360:0000000000330000
#004360:0023000000000000
#0043b0:0013
#004380:00000023
#004320:0000000000000013
#005360:00230000
#0053b0:0000001300000000
#005370:00000023
#005320:0000000000000013
#006350:0023000000000000
#006350:0000001300000000
#006320:0000000000230000
#006320:0000000000000013
#007350:0023000000000000
#007380:0000001300000000
#0073b0:0000000053230000
#007350:0000000000000013
#008320:5323000000000000
#008320:0000000000000012
#009360:52
#009320:0022000000000000
#009320:0000000000000013
#010360:53
#010320:0023000000000000
#010320:0000000000000014
#011360:54
#011320:0024000000000000
#0123c0:0000000000000012
#013380:52
#0133c0:0022000000000000
#0133b0:0000000000000013
#014370:53
#0143b0:0023000000000000
#0143a0:0000000000000014
#015360:54
#0153a0:0024000000000000
#018320:0013
#018360:00000023
#018371:0013
#0183b1:00000023
#0203b1:13
#020371:0023
#020360:13
#020320:0023
#0223b0:0013
#022370:00000023
#022361:0013
#022321:00000023
#024321:13
#024361:0000003323000000
#024370:13
#0243b0:0000003323000000
#025320:13
#025360:0000002300000000
#0253b0:0013
#025370:0000000000000023
#026350:0013
#026320:0000000000000023
#0293b0:13
#029370:0000002300000000
#029320:0013
#029360:0000000000000023
#030380:0013
#0303b0:0000000000000023
#033320:1323
#033350:00530000
#0333b1:1323
#033381:00530000
#0343b1:0000000000000013
#035371:00530000000000000000000000000000
#0353b1:00230000
#035321:0000001300002300
#035361:00000000000000000053000000000000
#0353b1:0000000000000013
#036371:0023000000000000
#036321:0000001300000000
#036361:0000000000230000
#036361:0000000000000013
#037321:0023000000000000
#0373b1:0000001300000000
#037371:0000000000230000
#037320:0000000000130000
#037360:0000000000000023
#0373b1:0000000000000013
#038371:0023000000000000
#038321:0000000000000013
#039361:00530000000000000000000000000000
#039321:00230000
#0393b1:0000001300002300
#039371:00000000000000000053000000000000
#039321:0000000000000013
#040361:0023000000000000
#0403b1:0000001300000000
#040371:0000000000230000
#040361:0000000000000013
#041321:0023000000000000
#041371:0000001300000000
#0413b1:0000000000230000
#041360:0000000000130000
#041320:0000000000000023
#041371:0000000000000013
#0423b1:0023000000000000
#042361:0000000000000013
#043321:0053002300000000
#043370:0000001300002300
#0433b0:00000000000000000053000000000000
#043370:0000000000000013
#0443b0:0053002300000000
#044361:0000001300002300
#044321:00000000000000000053000000000000
#044361:0000000000000013
#045321:0053002300000000
#045370:0000001300000000
#045380:00000000000000330000000000000000
#045390:00000000000000003300000000000033
#0453a0:00000000000000000033000000000000
#0453b0:00000000000000000000333333333300
#046380:00000000330000003355535533555355335553553355535533555355335553552300000000000000000000000000000000000000000000000000000000000000
#045321:0000000000000013
#046351:3300000033533353335333533353335323000000000000000000000000000000
#046331:00000000000000000055005500550055005500550055005500550055005500550000000000000000000000000000000000000000000000000000000000000000
#0463b1:0000000000000013
#047371:0023000000000000
#047321:0000001300000000
#047361:0000000000230000
#0473b1:0000000000000013
#048371:0023000000000000
#048321:0000001300230000
#048361:0053
#0483b1:0000000000000013
#049371:0023000000000000
#049320:0013000000000000
#049360:0000002300000000
#049320:0000000000000013
#050360:0023000000000000
#0503b1:0013000000000000
#050371:0000002300000000
#050321:0000000000000013
#051361:0023000000000000
#0513b1:0000001300000000
#051371:0000000000230000
#051321:0000000000000013
#052361:0023000000000000
#0523b1:0000001300230000
#052371:0053
#052321:0000000000000013
#053351:3333333333333300
#053321:0000000000000023
#0523b0:0000000000000013
#053380:3333333333333300
#0533b0:0000000000000023
#0543c0:0000000000000012
#055380:00220000
#054361:0000000000000012
#055321:0000323200000000
#055361:00000022
#055380:0000001200000000
#0553c0:0000000000003232
#056380:0032000000000000
#0563a0:00320000
#0563c0:0000002200000000
#055361:0000000000000012
#056321:0032000000000000
#056341:00320000
#056361:0000002200000000
#0563a1:0000000000140000
#056391:00000000000000000000003400000000
#056381:00000034
#056371:00000000000000000000000000340000
#056361:0000000000000024
#057321:0000001200000022
#057361:0000000000320000
#0573c0:0000000000000012
#058380:0022000000000000
#058320:0000000000000012
#059360:00220000
#058381:0000000000000012
#0593c1:0000323200000000
#059381:00000022
#059360:0000001200000000
#059320:0000000000003232
#060360:0032000000000000
#060340:00320000
#060320:0000002200000000
#059381:0000000000000012
#0603c1:0032000000000000
#0603a1:00320000
#060381:0000002200000000
#0613c1:0000001200000022
#061381:0000000000320000
#061320:0000000000000012
#062360:0022000000000000
#062360:0000000000000013
#063320:53
#063360:0023000000000000
#0623b1:0000000000000013
#063371:53
#0633b1:0023000000000000
#063371:0000001300230000
#0633b1:0053
#063320:0000001300230000
#063360:0053
#063360:0000000000000013
#064320:53
#064360:0023000000000000
#0633b1:0000000000000013
#064371:53
#0643b1:0023000000000000
#0643b1:0000001300000000
#064371:0000000000230000
#064321:0000000000000013
#065361:0023000000000000
#065381:0000001300230000
#0653b1:0053
#065350:0000000000130023
#065320:00000053
#065381:0000000000000013
#0663b1:53
#066381:0023000000000000
#066321:0000000000000013
#067361:53
#067321:0023000000000000
#066370:0000000000000013
#0673b0:53
#067370:0023000000000000
#0673b0:0000001300230000
#067370:0053
#067361:0000001300230000
#067321:0053
#067321:0000000000000013
#068361:53
#068321:0023000000000000
#067370:0000000000000013
#0683b0:53
#068370:0023000000000000
#068320:0000001300000000
#068360:0000000000230000
#0683b0:0000000000000013
#069370:0023000000000000
#069320:0000001300230000
#069360:0053
#0693b1:0000000000130023
#069371:00000053
#069320:0000000000000013
#070360:53
#070320:0023000000000000
#0703b0:0000000000000013
#071370:00230000
#071320:0000001300000000
#071360:00000023
#0713b0:0000000000000013
#072380:0023000000000000
#072380:0000001300000000
#0723b0:0000000000230000
#0723b0:0000000000000013
#073380:0023000000000000
#073320:0000001300000033
#073360:0000000000330000
#074360:0023000000000000
#0743b0:0013
#074380:00000023
#074320:0000000000000013
#075350:0023000000000000
#0753b0:0000001300000000
#075370:00000023
#075320:0000000000000013
#076350:0023000000000000
#076350:0000001300000000
#076320:0000000000230000
#0763b0:0000000000000013
#077380:0023000000000000
#077320:0000001300000000
#077350:0000000053230000
#0773b1:0000000000130000
#077381:0000000000005323
#077320:0000000000000013
#078350:5323000000000000
#078320:0013
#078350:00000023
#0783b1:0013
#078381:00000023
