This file was generated by Ched 2.6.4.0.
#TITLE ""
#ARTIST ""
#DESIGNER ""
#DIFFICULTY 0
#PLAYLEVEL
#SONGID ""
#WAVE ""
#WAVEOFFSET 0
#JACKET ""
#REQUEST "ticks_per_beat 480"
#00002: 4
#BPM01: 138
#00008: 01
#TIL00: ""
#HISPEED 00
#MEASUREHS 00
#00018:00000013
#00012:0000000000000013
#0011b:0000001300000000
#00115:0000000000000013
#00218:0013000000001300
#00215:0000130000130000
#0021b:0000001300000000
#00212:0000000000000013
#0031b:0013001300000013
#00315:0000130000000013
#00318:0000000000130000
#00312:0000000000130000
#00412:0013001300000000
#00418:00131300
#00415:00000013
#0041b:0000000000000013
#00518:0000000000000013
#00512:0000001300000000
#00615:0013000000001300
#00618:0000130000130000
#00612:0000001300000000
#0061b:0000000000000013
#00712:0013001300000013
#00718:0000130000000013
#00715:0000000000130000
#0071b:0000000000130000
#0081b:0013001300000000
#00815:00132300
#00812:0000000000000013
#00818:00000023
#00918:00130000
#00915:0000001300000000
#0091b:00000013
#00912:0000000000000013
#00910:41
#0101b:00130000
#01015:0000001300000000
#01018:00000013
#01012:0000000000000013
#01118:00130013
#01115:0000001300000013
#01215:0013001300001300
#0121b:0000130013000013
#01315:00130000
#01318:0000001300000000
#01312:00000013
#0131b:0000000000000013
#01412:00130000
#01418:0000001300000000
#01415:00000013
#0141b:0000000000000013
#01515:00130013
#01518:0000001300000013
#01618:0013001300000013
#01612:00131300
#02512:13
#02518:0013
#02510:41
#02615:13
#02618:0013000000000000
#02612:00130000
#0261b:0000001300000013
#0271a:0013000000000000
#02719:0000001300000000
#02718:0000000000130000
#02717:0000000000000013
#02713:00000013
#02714:0013
#02715:00130000
#02716:13
#02812:13
#0281b:0013000013000000
#02818:00130000
#02815:0000001300002300
#0291b:13
#02915:0013
#03012:0000001300000013
#03018:13
#03015:0013000000000000
#0301b:00130000
#03113:0013000000000000
#03114:0000001300000000
#03115:0000000000130000
#03116:0000000000000013
#0311a:00000013
#03119:0013
#03118:00130000
#03117:13
#03212:23140000
#03216:0014
#0321a:00000014
#0321b:23
#0331b:13
#03312:13
#03315:00000013
#03318:0000000000130013
#03418:0000230023001313
#03412:0000000000001323
#03415:0023002300000000
#03515:00130000000000000013000000000000
#0351b:00130000000000000013000000000000
#03512:0000001300000023
#03518:0000002300000013
#03510:41
#03615:0000131300001300
#0361b:0000132300000000
#03618:0000000000000013
#03815:0000130000001313
#03818:0000001300000000
#03812:0013
#0381b:0000000000001323
#0521b:0000000000000013
#05212:0000000000000013
#05218:0000130000130000
#05215:0000001300001300
#05415:0023002300001300
#0541b:0000000000000013
#05418:00232300
#05712:0013000000000000
#05718:00130000
#05812:0000130000000013
#0581b:0000001300000000
#05815:0013
#05818:00000013
#06215:0000000000001313
#0621b:0000130000001323
#06212:0000001300000000
#06218:0013
#06318:00130000000013000000000000000000
#06312:00130000000023000000000000000000
#06315:00000000000000000013000000001300
#0631b:00000000000000000013000000002300
#0631f:21
#06418:0000130000000013
#06412:00130000
#06415:0000002300001300
#0641b:0000001300000000
#06410:41
#06515:0013001300000013
#06518:0000130000130000
#06512:0000000000130000
#0651b:0000001300000013
#06612:0013000000002323
#0661b:0013
#06615:00130000
#06618:0000001300002323
#05517:0000001300000000
#0551b:0000000000000013
#0551f:11
#0561b:0000001300000000
#0561a:00000000330000000000000000330000
#05619:00000033
#05618:00000000000000000000003300000000
#0611b:0013000000000000
#06115:00130000
#05916:0000001300000000
#05912:0000000000000013
#06012:0000001300000000
#06014:00330033
#06013:00000000000000000000000000330000
#07018:00130013
#07015:0000001300000013
#0701b:0013000000000000
#07012:0023
#07218:00130013
#07215:0000001300000013
#0741b:00130000
#07418:0000001300000013
#07118:0000001300000000
#07112:0000000000000013
#07318:0000001300000000
#0731b:0013000000000000
#07315:0000130000000013
#0751b:0033000000000013
#07515:0000001300000000
#07812:00130000
#07815:0000001300000000
#07715:0000001300000000
#07712:0013000000000000
#07718:0000130000000013
#0171b:0013001300000000
#01715:23130000
#01712:00001313
#01718:0000000000130013
#01710:41
#01815:1300130000000013
#01818:0013000013000000
#01812:0000001300000000
#0191b:1313
#01912:0000001300000013
#01915:0013000000130000
#01918:00130013
#0201b:13
#02015:0000000000000013
#02118:13130000
#02112:0013001300000000
#0211b:00001313
#02115:0000000000130013
#02218:1300130000000013
#02215:0013000013000000
#0221b:0000001300000000
#02312:1313
#0231b:0000001300000013
#02318:0013000000130000
#02315:00130013
#02412:13
#0241b:00000023
#03918:00130000000000000013000000000000
#03912:00130000000000000013000000000000
#0391b:0000001300000023
#03915:0000002300000013
#04018:0000131300001300
#04012:0000132300000000
#04015:0000000000000013
#04218:0000130000000013
#04215:0000001300001300
#0421b:0013
#03715:0013001300000000
#03718:0000130000000013
#04118:0013001300000000
#04115:0000130000000013
#04315:0000130000000013
#0431b:0000001300000000
#04318:00000013
#04418:0000130000000013
#04412:0000001300000000
#04415:00000013
#04515:00130000
#0451b:0000001300000013
#04512:00000013
#04615:0000000013000013
#04619:0000001300000000
#04614:00130000
#0461a:0013000000000000
#04613:13
#04618:00000013
#04718:0000130000130013
#04715:0000001300001300
#04710:41
#04815:0000130000130000
#04818:0000001300001300
#04812:0000000000000013
#0491b:0000001300000013
#04912:0013
#04918:0000000000130000
#04915:00000013
#05015:0000001300001300
#05018:0000000013000013
#05115:0000130000130013
#05118:0000001300001300
#06715:00130000000023000000000000000000
#0671b:00130000000023000000000000000000
#06718:00000000000000000013000000002300
#06712:00000000000000000013000000002300
#06818:0000002300001300
#06812:0000002300000000
#06815:0000230000000023
#0681b:00230000
#06918:0013002300000023
#06915:0000130000230000
#06912:0000002300000023
#0691b:0000000000230000
#07615:00130013
#07618:0000001300000013
#05318:3333333333333300
#05315:3333333333333300
#00052:0000000000000063
#0015b:0000005300000000
#0125b:0000000013000053
#01155:0000006300000000
#01052:0000000000000063
#01055:0000006300000000
#00952:0000000000000063
#00955:0000006300000000
#00852:0000000000000063
#01358:0000005300000000
#0135b:0000000000000053
#01458:0000005300000000
#0145b:0000000000000053
#01558:0000005300000000
#01652:0013
#02552:63
#02558:0063
#0295b:53
#02955:0053
#0335b:53
#03352:63
#03458:0000000013000053
#03452:0000000000000053
#03555:00230000000000000023000000000000
#0355b:00230000000000000023000000000000
#03552:0000005300000053
#03558:0000005300000053
#0525b:0000000000000063
#05252:0000000000000053
#05458:0013
#0545b:0000000000000053
#05855:0013
#05852:0000000000000063
#06358:00230000000053000000000000000000
#06352:00230000000063000000000000000000
#06355:00000000000000000023000000006300
#0635b:00000000000000000023000000005300
#06255:0000000000000063
#0625b:0000000000000053
#06258:0013
#05557:0000005300000000
#0555b:0000000000000053
#0565b:0000005300000000
#0045b:0000000000000053
#00552:0000006300000000
#05956:0000006300000000
#05952:0000000000000063
#06052:0000006300000000
#07158:0000006300000000
#07152:0000000000000063
#07055:0000000000000053
#07052:0013
#07255:0000005300000000
#07358:0000006300000000
#07355:0000000000000053
#0755b:0000000000000053
#07555:0000005300000000
#07755:0000005300000000
#07758:0000000000000063
#0205b:53
#02057:0013
#02452:63
#02456:0013
#03852:0013
#03855:0000000000000063
#0385b:0000000000000063
#03958:00230000000000000023000000000000
#03952:00230000000000000023000000000000
#0395b:0000006300000063
#03955:0000006300000063
#04058:0000005300000000
#04052:0000005300000000
#0425b:0013
#04258:0000000000000053
#04355:0000000000000063
#04458:0000000000000053
#04655:0000000000000063
#04758:0000000000000053
#04852:0000000000000053
#05058:0000000013000053
#0495b:0000000000000063
#05155:0000000000000063
#06455:0000005300000000
#0645b:0000006300000000
#0665b:0013
#06652:0000000000000053
#06658:0000000000000053
#03755:0000006300000000
#03758:0000000000000053
#04158:0000005300000000
#04155:0000000000000063
#06755:00230000000063000000000000000000
#0675b:00230000000063000000000000000000
#06758:00000000000000000023000000005300
#06752:00000000000000000023000000005300
#06852:0000005300000000
#06858:0000005300000000
#07458:0000000000000063
#07658:0000006300000000
#01858:0063
#02255:0053
#0365b:0000006300000000
#03655:0000006300000000
#0285b:0013
#000320:0000000000000013
#001350:00230000
#0013b0:0000001300000000
#001380:00000023
#0043b0:0000000000000013
#005380:00230000
#005320:0000001300000000
#005350:00000023
#008320:0000000000000013
#009350:0023000000000000
#009350:0000001300000000
#009320:0000000000230000
#009320:0000000000000013
#010350:0023000000000000
#010350:0000001300000000
#010320:0000000000230000
#010320:0000000000000013
#011350:0023000000000000
#011350:0000001300000000
#011320:0000000000230000
#0123b0:0000000000000013
#013380:0023000000000000
#013380:0000001300000000
#0133b0:0000000000230000
#0133b0:0000000000000013
#014380:0023000000000000
#014380:0000001300000000
#0143b0:0000000000230000
#0143b0:0000000000000013
#015380:0023000000000000
#015380:0000001300000000
#0153b0:0000000000230000
#018380:0013
#0183b0:00000023
#0203b0:13
#020370:0023
#022350:0013
#022320:00000023
#024320:13
#024360:0000003323000000
#025320:13
#025350:0000002300000000
#025380:0013
#0253b0:0000000000000023
#026350:00001323
#0293b0:13
#029380:0000002300000000
#029350:0013
#029320:0000000000000023
#030380:00001323
#0333b0:13
#033380:0023
#033321:13
#033351:0023
#034321:0000000000000013
#035351:00530000000000000000000000000000
#035321:00230000
#034380:0000000000000013
#0353b0:00530000000000000000000000000000
#035380:00230000
#035320:0000001300002300
#035350:00000000000000000053000000000000
#035381:0000001300002300
#0353b1:00000000000000000053000000000000
#035321:0000000000000013
#036351:0023000000000000
#035380:0000000000000013
#0363b0:0023000000000000
#0363b0:0000001300000000
#036380:0000000000230000
#036351:0000001300000000
#036321:0000000000230000
#037351:0000001300000000
#037321:0000000000230000
#037381:0000000000000013
#0383b1:0023000000000000
#0383b1:0000000000000013
#039381:00530000000000000000000000000000
#0393b1:00230000
#038350:0000000000000013
#039320:00530000000000000000000000000000
#039350:00230000
#0393b0:0000001300002300
#039380:00000000000000000053000000000000
#039351:0000001300002300
#039321:00000000000000000053000000000000
#0393b1:0000000000000013
#040381:0023000000000000
#039350:0000000000000013
#040320:0023000000000000
#040320:0000001300000000
#040350:0000000000230000
#040381:0000001300000000
#0403b1:0000000000230000
#041381:0000001300000000
#0413b1:0000000000230000
#041351:0000000000000013
#042321:0023000000000000
#042381:0000000000000013
#0433b1:0023000000000000
#043351:0000000000000013
#044321:0023000000000000
#044381:0000000000000013
#0453b1:0023000000000000
#046351:0000000000000013
#047321:0023000000000000
#047381:0000000000000013
#0483b1:0023000000000000
#048321:0000000000000013
#049351:0023000000000000
#0493b1:0000000000000013
#050381:0023000000000000
#050381:0000000000000013
#0513b1:0023000000000000
#051351:0000000000000013
#052321:0023000000000000
#0523b1:0000000000000013
#053381:3333333333333323
#052320:0000000000000013
#053350:3333333333333323
#0543b0:0000000000000013
#055370:0000333300000000
#0553b0:0000000000003333
#056380:00003300000000000000333300000000
#0563a0:00000000330000000000000000330000
#0563b0:0000003300000023
#056390:00000033
#057320:0000001300000000
#057350:0000000000230000
#0573b0:0000000000000013
#058380:0023000000000000
#058320:0000000000000013
#059360:0000333300000000
#059320:0000000000003333
#060350:0033000000330000
#060340:00330033
#060320:0000003300000023
#060330:00000000000000000000000000330000
#0613b0:0000001300000000
#061380:0000000000230000
#061320:0000000000000013
#062350:0023000000000000
#0623b0:0000000000000013
#063380:00530000000000000000000000000000
#0633b0:00230000
#062351:0000000000000013
#063321:00530000000000000000000000000000
#063351:00230000
#063321:0000001300002300
#063351:00000000000000000053000000000000
#063380:0000001300002300
#0633b0:00000000000000000053000000000000
#0633b0:0000000000000013
#064380:0023000000000000
#063351:0000000000000013
#064321:0023000000000000
#064351:0000001300000000
#064321:0000000000230000
#0643b0:0000001300000000
#064380:0000000000230000
#066320:0000000000000013
#067350:00530000000000000000000000000000
#067320:00230000
#066381:0000000000000013
#0673b1:00530000000000000000000000000000
#067381:00230000
#0673b1:0000001300002300
#067381:00000000000000000053000000000000
#067350:0000001300002300
#067320:00000000000000000053000000000000
#067320:0000000000000013
#068350:0023000000000000
#067381:0000000000000013
#0683b1:0023000000000000
#068381:0000001300000000
#0683b1:0000000000230000
#068320:0000001300000000
#068350:0000000000230000
#070350:0000000000000013
#071320:00230000
#071380:0000001300000000
#0713b0:00000023
#071320:0000000000000013
#072350:0023000000000000
#072350:0000001300000000
#072320:0000000000230000
#073380:0000001300000000
#0733b0:0000000000230000
#073350:0000000000000013
#074320:0023000000000000
#074350:00001323
#074380:0000000000000013
#0753b0:0033230000000000
#075350:0000001300000000
#075320:00000023
#0753b0:0000000000000013
#076380:0023000000000000
#076380:0000001300000000
#0763b0:0000000000230000
#077350:0000001300000000
#077320:0000000000230000
#077380:0000000000000013
#0783b0:0023000000000000
#078380:00001323
