This file was generated by Ched 2.6.4.0.
#TITLE ""
#ARTIST ""
#DESIGNER ""
#DIFFICULTY 0
#PLAYLEVEL
#SONGID ""
#WAVE ""
#WAVEOFFSET 0
#JACKET ""
#REQUEST "ticks_per_beat 480"
#00002: 4
#BPM01: 138
#00008: 01
#TIL00: ""
#HISPEED 00
#MEASUREHS 00
#0001c:0000000000001212
#00017:0000000000001212
#00117:00120000000012000000000000000000
#00112:00000000120000000012000000001200
#0011c:0000001200001212
#00212:0012000000000000
#00217:0000121200121212
#0021c:0000121200000000
#00215:00000000000000000000000000120000
#00317:0012121200000000
#00312:0000120000120000
#0031c:0000001200000012
#00412:0012000000000012
#00417:0000121212001212
#0041c:0000001212000000
#00916:13001313
#00917:0013130000000013
#00912:00000013000000000000130000001300
#00919:0000001300000000
#0091b:13001313
#00910:41
#00812:0012001223000013
#0081c:0012000000000000
#00817:0000121212000013
#00816:00000023
#02612:0013130000001300
#02617:00000013000000000000000000001300
#0261b:1300001313000000
#02616:13000000000000130000000000000000
#03612:0000130000001313
#0361b:00000000000023000000000000130000
#03616:1314141413140000
#03717:13
#03712:00131300
#0371b:0013000000001300
#03716:0000001400000000
#03812:1313000013000023
#0381b:0000130000001323
#03816:0000141414000000
#03817:0000000000130000
#04214:0000000000000013
#04212:13130013
#04216:0014141414130000
#0421b:0013
#0431b:13000013000000001300000013000000
#04316:13131300
#04312:0013001300001300
#04317:0000001300130000
#04319:0000000000000013
#04919:0000000000130000
#04917:0013000013000023
#0491b:00000013
#04916:00230013
#04912:1300000023000013
#0551c:1200121200000012
#05512:00001212
#05517:0000001200000000
#0551f:11
#05417:0000000000001212
#05412:0000230026001212
#05418:0023002326000000
#0541b:00230000
#05415:0023002300000000
#07012:1300260026001212
#07017:0000000000001212
#07015:0016001600000000
#0701b:00130000
#07018:2626
#07117:00120000000012000012000000000000
#0711c:00120000000012000000000000000000
#07112:00000000000000000012000000001200
#07118:0000000000000012
#07214:00120000
#07216:0000001200000012
#0721a:00120012
#07217:1212
#0721c:0000001200000000
#07212:0000000000120000
#07218:00001200000000000000000000120000
#07417:0000000000001212
#0741c:0012
#07412:0012000000000012
#07418:00121200
#07414:00120000
#0741a:0000001200000000
#07416:0000001200000000
#0751c:1200121200001200
#07517:1200121212000012
#07512:0000000012001212
#07814:00120000
#0781a:00120000
#07813:0000001200000000
#0781b:0000001200000000
#0781c:0012
#07812:0012
#03517:1313
#03516:0014141400141414
#0351b:0000130000000023
#03512:0000002300001300
#03510:41
#0401b:0000131300000013
#04016:00000000130000000000000000130000
#04012:0013002300000000
#04017:0000000013130000
#04014:00000000000000000000001300000000
#04019:00000013
#03917:00000013
#03912:0013002300001313
#0391b:0000131300130023
#03916:00130000
#04112:0013001313000000
#04116:13130000
#0411b:00130013
#06412:13000000130023000000000000140000
#06416:1314142400141414
#06417:0013
#0641b:00001313
#06410:41
#06312:1300132300000000
#06316:1314142400141424
#06317:0013
#0631b:0000000013001323
#0631f:21
#06212:00000013
#06216:0000000000001424
#0621b:0000000000000023
#06717:1313
#06716:0014142400141424
#06712:0000002400000000
#0671a:2400240024002424
#02012:1300000000000013
#02017:00130000
#0201b:0000130000000013
#02016:13
#03217:0000001300000000
#03216:0000000000130000
#03212:23131300
#0321b:23130013
#06512:14131413
#0651a:00140014
#06516:0013000000130000
#06517:0000001300000013
#0651b:0013
#06615:0016001600000000
#06612:1600130016000024
#06618:00160000
#0661b:1313
#06617:0000000000130000
#06616:0000000000002424
#06816:1314142413140024
#0681a:00000000000024000000001400140000
#06812:24242424
#0731c:0012000012000012
#07314:00120000
#07318:0000001200000000
#07312:1200001200120000
#0731a:00120000
#0761c:1200121200120000
#07612:00000000120000001200001200000000
#0761a:00000012
#07614:00000000000000000000000000120000
#07615:0012000000000000
#07617:0000001200000000
#07618:0000000000000012
#0481b:0013000000130013
#04819:00130013
#04812:1323
#04816:00230023
#04719:00130000
#0471b:0013000000001300
#04717:0000000000130000
#04712:1323
#04716:00230023
#04710:41
#05114:00000000130000000000000013000013
#05112:1300001300000000
#05116:0000000013000013
#05115:0000000000000000000000000000000000000000000000000000000000130013
#0511b:0023002300230023
#05214:00130000130000130013000013000000
#05216:1300000000000013
#05215:0013000000000000000000000000000000000000000000000000000000000000
#05213:0000000000000000000000000013001300130000000000000000000000000000
#05212:0000001313000000
#0521b:0023002300230023
#0161b:1300130013000013
#01612:0000001300001313
#01616:13131300
#01617:0000001300000000
#0181b:0013001300130013
#01816:1300000000130013
#01815:0000001300000000
#01812:0013000013000000
#01818:00130000
#01817:0013
#01916:1313
#0191b:0013000000130000
#01912:00130013
#01917:0000001300000013
#02512:1300000013000013
#02515:0013000000001300
#02518:00000013000000000000001300000000
#0251b:1300130000130000
#02517:0013
#02519:0000001300000000
#02510:41
#02712:1300001300001313
#0271b:0013130013000013
#02717:1300000000130000
#02716:00131300
#05612:00001200120000000000000000360000
#0561c:1200001212000000
#05616:00000000000000000000003600000000
#05614:00000036
#06916:0024002400240014
#0691a:2424
#06912:00240024
#00517:00120000000012000000000000000000
#0051c:00000000120000000012000000001200
#00512:0000001200001212
#0061c:0012000000000000
#00617:0000121200121212
#00612:0000121200000000
#00619:00000000000000000000000000120000
#00717:0012121200120000
#0071c:0000121200000000
#01712:0013001300130013
#01716:23131313
#01717:0013001300130013
#0171b:13131313
#01710:41
#0241b:13
#02416:00000013000000000000000000000000
#02412:00000013000000000000000024000000
#02417:13
#0241a:00000024
#02212:0013001300130013
#02217:1300000000130013
#02218:0000001300000000
#0221b:0013000013000000
#02215:00130000
#02216:0013
#02317:1313
#02312:0013000000130000
#0231b:00130013
#02316:0000001300000013
#02117:13131313
#0211b:0013001300130013
#02116:0013001300130013
#02112:13131313
#0301b:0013130000001300
#03016:00000013000000000000000000001300
#03012:1300001313000000
#03017:13000000000000130000000000000000
#0291b:1300000013000013
#02918:0013000000001300
#02915:00000013000000000000001300000000
#02912:1300130000130000
#02916:0013
#02914:0000001300000000
#0311b:1300001300001313
#03112:0013130013000013
#03116:1300000000130000
#03117:00131300
#0331b:1300000000000013
#0331a:0013000000001300
#03319:0000130000130000
#03318:0000001313000000
#03312:1300000000000013
#03313:0013000000001300
#03314:0000130000130000
#03315:0000001313000000
#0461b:13000013
#04612:00130000000000000000000013000000
#04615:00000013000000000000000000000000
#04618:0013000000000000
#05012:00000013
#0501b:0013000000001313
#05017:13
#05016:0000130000000013
#0341b:00230013
#03416:0000000000001424
#03415:0023002300000000
#03412:0000230026000023
#03418:0023002326000000
#04412:13000013000000001300000013000000
#04417:13131300
#0441b:0013001300001300
#04416:0000001300130000
#04414:0000000000000013
#0451b:1300131300000000
#04516:13000000000000130000000000000013
#04518:0013000000000000
#04515:00000013000000000000000000000000
#04512:00000000130000000000001300000000
#04519:0000000013000013
#04514:00000000000000000013000000130000
#04517:0000000000131300
#05312:1300000000000013
#05313:0013000000001300
#05314:0000130000130000
#05315:0000001313000000
#0531b:1300000000000013
#0531a:0013000000001300
#05319:0000130000130000
#05318:0000001313000000
#05712:1200000000120000
#0571c:1200001200000000
#05717:0012001200000012
#0571a:00120000
#05714:00120000
#05718:0012
#05716:00000012
#05912:1200121200000012
#0591c:00001212
#05917:0000001200000000
#05817:0000000000001212
#0581c:0000000000001212
#0601c:0012120000000000
#06012:1200001212000000
#06017:00000000000000000000120000120000
#06015:00000012
#06019:0000000000000012
#0611c:1200000000120000
#06112:1200001200000000
#06117:0012000000000012
#06115:00120000
#06119:00120000
#06118:00000012
#06116:0012
#07716:0012001200000000
#0771c:12
#07712:0012
#07714:00120000
#0771a:00120000
#0101b:1300000013000013
#01012:0013130000001300
#01017:00000013000000000000000013000000
#01014:0000001300000000
#01016:1300000013000013
#01019:0000000000130000
#01112:13001313
#0111b:0013000013001313
#01117:13130000
#01113:00000013000000000000000000000000
#01119:0000001300000000
#01116:0000000000130013
#01217:13131300
#01212:13131300
#0121b:0000001300001313
#01216:0000001300000013
#01317:13001313
#01316:0013130000000013
#0131b:00000013000000000000130000001300
#01314:0000001300000000
#01312:13001313
#01412:1300000013000013
#0141b:0013130000001300
#01416:00000013000000000000000013000000
#01419:0000001300000000
#01417:1300000013000013
#01414:0000000000130000
#0151b:13001313
#01512:0013000013001313
#01516:13130000
#0151a:00000013000000000000000000000000
#01514:0000001300000000
#01517:0000000000130013
#02818:00131300000000000000000000000000
#0281b:13
#02816:000000000000000000000000000000000000000000000000000000000000000000000000000000000000000000000000000000000000000000000000000000000000000000000000000000000000000000000000000000000000000000000000000000000000000000000000000000000000000000000000000000000000000000000000000000000000000000000000000000000000000000000000000000000000000000000000000000000000000000000000000000000000000000000000000000000000000000000000000000000000000000000000000000000000000000000000000000000000000000000000000000000000000000000000000000000000000000000000000000000000000000000000000000000000000000000000000000000000000000000000000000000000000000000000000000000000000000000000000000000000000000000000000000000000000000000000000000000000000000000013000000000000000000000000000000000000000000000000000000000000000000000000000000000000000000000000000000000000000000000000000000000000000000000000000000000000000000000000000000000000000000000000000000000000000000000000000000000000000000000000000000000000000000000000000000000000000000000000000000000000000000000000000000000000000000000000000000000000000000000000000000000000000000000000000000000000000000000000000000000000000000000000000000000000000000000000000000000000000000000013000000000000000000000000000000000000000000000000000000000000000000000000000000000000000000000000000000000000000000000000000000000000000000000000000000000000000000000000000000000000000000000000000000000000000000000000000000000000000000000000000000000000000000000000000000000000000000000000000000000000000000000000000000000000000000000000000000000000000000000000000000000000000000000000000000000000000000000000000000000000000000000000000000000000000000000000000000000000000000000013000000000000000000000000000000000000000000000000000000000000000000000000000000000000000000000000000000000000000000000000000000000000000000000000000000000000000000000000000000000000000000000000000000000000000000000000000000000000000000000000000000000000000000000000000000000000000000000000000000000000000000000000000000000000000000000000000000000000000000000000000000000000000000000000000000000000000000000000000000000000000000000000000000000000000000000000000000000000000000000000000000000000000000000000000000000000000000000000000000000000000000000000000000000000000000000000000000000000000000000000000000000000000000000000000000000000000000000000000000000000000000000000000000000000000000000000000000000000000000000000000000000000000000000000000000000000000000000000000000000000000000000000000000000000000000000000000000000000000000000000000000000000000000000000000000000000000000000000000000000000000000000000000000000000000000000000000000000000000000000000000000000000000000000000000000000000000000000000000000000000000000000000000000000000000000000000000000000000000000000000000000000000000000000000000000000000000000000000000000000000000000000000000000000000000000000000000000000000000000000000000000000000000000000000000000000000000000000000000000000000000000000000000000000000000000000000000000000000000000000000000000000000000000000000000000000000000000000000000000000000000000000000000000000000000000000000000000000000000000000000000000000000000000000000000000000000000000000000000000000000000000000000000000000000000000000000000000000000000000000000000000000000000000000000000000000000000000000000000000000000000000000000000000000000000000000000000000000000000000000000000000000000000000000000000000000000000000000000000000000000000000000000000000000000000000000000000000000000000000000000000000000000000000000000000000000000000000000000000000000000000000000000000000000000000000000000000000000000000000000000000000000000000000000000000000000000000000000000000000000000000000000000000000000000000000000000000000000000000000000000000000000000000000000000000000000000000000000000000000000000000000000000000000000000000000000000000000000000000000000000
#02815:00131300000000000000000000000000
#02817:00000013001300130000000000000000
#02819:0000131300000000
#02814:0000131300000000
#02812:13000024
#0281a:00000024
#0005c:0000000000000062
#00157:00220000000062000000000000000000
#00152:00000000000000000022000000000000
#0015c:0000000000000062
#00257:0000006200000062
#0035c:0000005200000052
#00352:0000000000620000
#00956:23
#00957:0000000000000063
#00852:0000000000000063
#00857:0022
#03652:0000000000000053
#03656:2300001423000000
#0365b:0000006300000000
#03757:23
#0555c:0000005200000000
#05552:00000052
#07157:00220000000052000022000000000000
#0715c:00220000000052000000000000000000
#07152:00000000000000000022000000006200
#07052:0000360036000062
#07057:0000000000000062
#07058:4646
#0755c:2200006200000000
#07557:2200006222000052
#07552:0022
#07457:0000000000000052
#07452:0000000000000052
#07458:0062
#04655:0013
#04658:0013
#03557:2323
#03556:0000001400000014
#03552:0000005300000000
#0355b:0000000000000063
#03456:0000000000000014
#03458:0046
#03452:0000000036000053
#06456:2300000000000054
#06457:0023
#0645b:00000013
#06452:0000136300000000
#06356:23
#06357:0023
#06352:0000136300000000
#0635b:0000000000001353
#0625b:0000000000000053
#06256:0012
#0625c:0012
#06757:2323
#06752:0000006400000000
#0675a:1400140014001454
#06652:3600000036000064
#06658:00460000
#06657:0000000000230000
#0665b:0063
#06952:00140014
#0695a:1414
#06956:0064005400640000
#02052:6333
#02056:6333
#02057:00230000
#0205b:00230000
#03257:0000002300000000
#03256:0000000000230000
#03252:0063
#0325b:00530000
#05452:0000000036000052
#05458:0046
#06556:0063000000630000
#06552:00230023
#06557:0000005300000000
#0655b:0023
#06856:2300000023000054
#0685a:0000005400000000
#06852:14141414
#07257:2222
#0725c:0000005200000000
#07256:0000000000000062
#07358:0000005200000000
#0735c:0000000022000062
#07352:2200000000520000
#0765c:22
#07652:0022
#07657:0000006200000000
#07658:0000000000000052
#0485b:0000000000000063
#04957:0053000000000043
#04952:0000000000000053
#05652:00520000
#0565c:62
#03856:0044
#03852:0000000053000013
#03857:0000000000230000
#0385b:0000000000000063
#00457:0022
#00452:0000000000000052
#00557:00220000000052000000000000000000
#0055c:00000000000000000022000000000000
#00552:0000000000000052
#00657:0000005200000052
#00757:0000005200520000
#0245b:5313
#02456:00000023000000000000000000000000
#02452:00000023000000000000000000000000
#02457:5313
#0265b:0063
#02752:53
#0275b:00630000
#02756:0063
#02757:0000000000530000
#03052:0053
#0315b:63
#03152:00530000
#03157:0053
#03156:0000000000630000
#05057:23
#05056:0000230000000063
#0505b:0063000013000000
#05052:0013
#03952:0000005300000013
#0395b:0000001300000063
#04256:0000000034230000
#0425b:0063
#04352:0000005300000000
#04356:0023
#0445b:0000006300000000
#04457:0023
#05757:0000000000000052
#0575c:0000006200000000
#05758:0022
#05752:0000000000520000
#05756:00000022
#05852:0012
#05858:0012
#0585c:0000000000000062
#05952:0000006200000000
#0595c:00000062
#0605c:00620000
#06052:52
#06157:0000000000000062
#0615c:0000000000620000
#06158:00000022
#06152:0000005200000000
#06156:0022
#0775c:22
#07756:0000006200000000
#07752:0022
#0785c:0062
#07852:0052
#05152:2300005300000000
#05156:0000000023000023
#05155:0000000000000000000000000000000000000000000000000000000000630063
#05154:00000000000000000000000000000023
#02156:0023002300230023
#02152:53535353
#0225b:0023000063000000
#02257:5300000000230000
#02252:0000002300230000
#02255:00630000
#02256:0063
#01757:0023002300230023
#0175b:63636363
#01852:0023000053000000
#01856:6300000000230000
#0185b:0000002300230000
#01858:00530000
#01857:0053
#0105b:23
#01056:0000000000000053
#01152:23
#0115b:0000000000000053
#01156:0000000000000053
#01257:2313
#01252:2363
#0125b:0000000000000053
#01357:23
#01356:0000000000000053
#01452:23
#01457:0000000000000063
#0155b:23
#01552:0000000000000063
#01557:0000000000000063
#01656:2313
#0165b:2353
#0285b:2343
#02858:00632300000000000000000000000000
#02852:2333
#02856:000000000000000000000000000000000000000000000000000000000000000000000000000000000000000000000000000000000000000000000000000000000000000000000000000000000000000000000000000000000000000000000000000000000000000000000000000000000000000000000000000000000000000000000000000000000000000000000000000000000000000000000000000000000000000000000000000000000000000000000000000000000000000000000000000000000000000000000000000000000000000000000000000000000000000000000000000000000000000000000000000000000000000000000000000000000000000000000000000000000000000000000000000000000000000000000000000000000000000000000000000000000000000000000000000000000000000000000000000000000000000000000000000000000000000000000000000000000000000000000053000000000000000000000000000000000000000000000000000000000000000000000000000000000000000000000000000000000000000000000000000000000000000000000000000000000000000000000000000000000000000000000000000000000000000000000000000000000000000000000000000000000000000000000000000000000000000000000000000000000000000000000000000000000000000000000000000000000000000000000000000000000000000000000000000000000000000000000000000000000000000000000000000000000000000000000000000000000000000000000053000000000000000000000000000000000000000000000000000000000000000000000000000000000000000000000000000000000000000000000000000000000000000000000000000000000000000000000000000000000000000000000000000000000000000000000000000000000000000000000000000000000000000000000000000000000000000000000000000000000000000000000000000000000000000000000000000000000000000000000000000000000000000000000000000000000000000000000000000000000000000000000000000000000000000000000000000000000000000000000063000000000000000000000000000000000000000000000000000000000000000000000000000000000000000000000000000000000000000000000000000000000000000000000000000000000000000000000000000000000000000000000000000000000000000000000000000000000000000000000000000000000000000000000000000000000000000000000000000000000000000000000000000000000000000000000000000000000000000000000000000000000000000000000000000000000000000000000000000000000000000000000000000000000000000000000000000000000000000000000000000000000000000000000000000000000000000000000000000000000000000000000000000000000000000000000000000000000000000000000000000000000000000000000000000000000000000000000000000000000000000000000000000000000000000000000000000000000000000000000000000000000000000000000000000000000000000000000000000000000000000000000000000000000000000000000000000000000000000000000000000000000000000000000000000000000000000000000000000000000000000000000000000000000000000000000000000000000000000000000000000000000000000000000000000000000000000000000000000000000000000000000000000000000000000000000000000000000000000000000000000000000000000000000000000000000000000000000000000000000000000000000000000000000000000000000000000000000000000000000000000000000000000000000000000000000000000000000000000000000000000000000000000000000000000000000000000000000000000000000000000000000000000000000000000000000000000000000000000000000000000000000000000000000000000000000000000000000000000000000000000000000000000000000000000000000000000000000000000000000000000000000000000000000000000000000000000000000000000000000000000000000000000000000000000000000000000000000000000000000000000000000000000000000000000000000000000000000000000000000000000000000000000000000000000000000000000000000000000000000000000000000000000000000000000000000000000000000000000000000000000000000000000000000000000000000000000000000000000000000000000000000000000000000000000000000000000000000000000000000000000000000000000000000000000000000000000000000000000000000000000000000000000000000000000000000000000000000000000000000000000000000000000000000000000000000000000000000000000000000000000000000000000000000000000000000000000000000000000000000000
#02855:00532300000000000000000000000000
#02857:00000063006300530000000000000000
#02859:0000232300000000
#02854:0000232300000000
#04057:0023
#0405b:0000001300000063
#04052:0000005300000000
#04156:23
#05256:23
#05255:0063000000000000000000000000000000000000000000000000000000000000
#05254:00230000000000230023000000000000
#05253:0000000000000000000000000053005300530000000000000000000000000000
#05252:0000002323000000
#0003c0:0000000000000012
#001370:00520000000000000000000000000000
#0013c0:00220000
#001370:0000001200002200
#001320:00000000000000000052000000000000
#0013c0:0000000000000012
#002370:0022000000000000
#002370:0000001200000000
#002320:0000000000220000
#002370:0000000000000012
#0033c0:0022000000000000
#0033c0:0000001200000000
#003370:0000000000220000
#003321:0000000000120000
#003371:0000000000000022
#0033c0:0000000000000012
#004370:0022000000000000
#004370:0012
#004320:00000022
#004320:0000000000000012
#005370:00520000000000000000000000000000
#005320:00220000
#005370:0000001200002200
#0053c0:00000000000000000052000000000000
#005320:0000000000000012
#006370:0022000000000000
#006370:0000001200000000
#0063c0:0000000000220000
#006370:0000000000000012
#007320:0022000000000000
#007370:0000001200000000
#007320:0000000000000022
#007371:0000000000120000
#0073c1:0000000000000022
#008371:0012
#0083c1:00000022
#008321:0000000000000013
#009361:53
#009321:0023000000000000
#009371:0000000000000013
#0103b1:53
#010371:0023000000000000
#010361:0000000000000013
#011321:53
#011361:0023000000000000
#0113b1:0000000000000013
#012371:53
#0123b1:0023000000000000
#011360:0000000000000013
#012320:53
#012360:0023000000000000
#012320:0013
#012360:00000023
#0123b0:0000000000000013
#013370:53
#0133b0:0023000000000000
#013360:0000000000000013
#014320:53
#014360:0023000000000000
#014370:0000000000000013
#0153b0:53
#015370:0023000000000000
#015320:0000000000000013
#016360:53
#016320:0023000000000000
#015371:0000000000000013
#0163b1:53
#016371:0023000000000000
#0163b1:0013
#016371:00000023
#0173b1:13333333
#017371:0053005300530053
#0183b1:23
#018360:13
#018320:0053000000000000
#018350:00230000
#018381:00130000
#0183b1:0000005300530000
#018371:00003323
#018320:00001323
#018360:0000000000530000
#019320:13
#019370:0023000000000000
#019360:00130000
#0193b0:0000002300000000
#019320:0013
#019370:0000000000230000
#019360:00000013
#0193b0:0000000000000023
#020320:1323
#020370:00530000
#020361:1323
#0203b1:00530000
#021321:13333333
#021361:0053005300530053
#022321:23
#022370:13
#0223b0:0053000000000000
#022380:00230000
#022351:00130000
#022321:0000005300530000
#022361:00003323
#0223b0:00001323
#022370:0000000000530000
#0233b0:13
#023360:0023000000000000
#023370:00130000
#023320:0000002300000000
#0233b0:0013
#023360:0000000000230000
#023370:00000013
#023320:0000000000000023
#0243b0:1300003323000000
#024360:00000053000000000000000000000000
#024371:1300003323000000
#024321:00000053000000000000000000000000
#0263b1:0013
#026371:00000023
#027321:13
#027361:0023000000000000
#0273b1:00130000
#027371:0000002300000000
#027361:0013
#027321:0000000000230000
#027370:0000000000130000
#0273b0:00000023
#0283b0:1323
#028380:00530000000000000000000000000000
#028350:0033000000000000
#028370:00000053005300530000000000000000
#028390:00330000
#028340:0000003300000000
#028321:1323
#028351:00530000000000000000000000000000
#028381:0033000000000000
#028361:000000000000000000000000000000000000000000000000000000000000000000000000000000000000000000000000000000000000000000000000000000000000000000000000000000000000000000000000000000000000000000000000000000000000000000000000000000000000000000000000000000000000000000000000000000000000000000000000000000000000000000000000000000000000000000000000000000000000000000000000000000000000000000000000000000000000000000000000000000000000000000000000000000000000000000000000000000000000000000000000000000000000000000000000000000000000000000000000000000000000000000000000000000000000000000000000000000000000000000000000000000000000000000000000000000000000000000000000000000000000000000000000000000000000000000000000000000000000000000000053000000000000000000000000000000000000000000000000000000000000000000000000000000000000000000000000000000000000000000000000000000000000000000000000000000000000000000000000000000000000000000000000000000000000000000000000000000000000000000000000000000000000000000000000000000000000000000000000000000000000000000000000000000000000000000000000000000000000000000000000000000000000000000000000000000000000000000000000000000000000000000000000000000000000000000000000000000000000000000000053000000000000000000000000000000000000000000000000000000000000000000000000000000000000000000000000000000000000000000000000000000000000000000000000000000000000000000000000000000000000000000000000000000000000000000000000000000000000000000000000000000000000000000000000000000000000000000000000000000000000000000000000000000000000000000000000000000000000000000000000000000000000000000000000000000000000000000000000000000000000000000000000000000000000000000000000000000000000000000000053000000000000000000000000000000000000000000000000000000000000000000000000000000000000000000000000000000000000000000000000000000000000000000000000000000000000000000000000000000000000000000000000000000000000000000000000000000000000000000000000000000000000000000000000000000000000000000000000000000000000000000000000000000000000000000000000000000000000000000000000000000000000000000000000000000000000000000000000000000000000000000000000000000000000000000000000000000000000000000000000000000000000000000000000000000000000000000000000000000000000000000000000000000000000000000000000000000000000000000000000000000000000000000000000000000000000000000000000000000000000000000000000000000000000000000000000000000000000000000000000000000000000000000000000000000000000000000000000000000000000000000000000000000000000000000000000000000000000000000000000000000000000000000000000000000000000000000000000000000000000000000000000000000000000000000000000000000000000000000000000000000000000000000000000000000000000000000000000000000000000000000000000000000000000000000000000000000000000000000000000000000000000000000000000000000000000000000000000000000000000000000000000000000000000000000000000000000000000000000000000000000000000000000000000000000000000000000000000000000000000000000000000000000000000000000000000000000000000000000000000000000000000000000000000000000000000000000000000000000000000000000000000000000000000000000000000000000000000000000000000000000000000000000000000000000000000000000000000000000000000000000000000000000000000000000000000000000000000000000000000000000000000000000000000000000000000000000000000000000000000000000000000000000000000000000000000000000000000000000000000000000000000000000000000000000000000000000000000000000000000000000000000000000000000000000000000000000000000000000000000000000000000000000000000000000000000000000000000000000000000000000000000000000000000000000000000000000000000000000000000000000000000000000000000000000000000000000000000000000000000000000000000000000000000000000000000000000000000000000000000000000000000000000000000000000000000000000000000000000000000000000000000000000000000000000000000000000000000000000000000
#028341:00330000
#028391:0000003300000000
#030321:0013
#030361:00000023
#0313b1:13
#031371:0023000000000000
#031321:00130000
#031361:0000002300000000
#031371:0013
#0313b1:0000000000230000
#031360:0000000000130000
#031320:00000023
#0323b0:00132300
#032370:0000005300000000
#032321:00001323
#032361:0000000000530000
#034321:0000000000000013
#035371:53
#035321:0023000000000000
#035321:0000001300230000
#035371:0053
#0353b1:0000000000000013
#036361:53
#0363b1:0023000000000000
#0363b1:0000001300230000
#036361:0053
#036321:0000000000000013
#037371:53
#037321:0023000000000000
#0373a1:0000001400000000
#037361:0000000054240000
#037320:0000000000140000
#037360:0000000000005424
#0373a1:0000000000000014
#038361:5424000000000000
#038321:00001323
#038371:0000000000530000
#0383b1:0000000000000013
#039361:0023000000000000
#039321:0000001300000000
#039371:0000000000230000
#0393b1:0000000000000013
#040361:0023000000000000
#040321:0000001300230000
#040371:0053
#0403b1:0000000000000013
#041361:53
#0413b1:0023000000000000
#041361:0000001400000000
#0413a1:00000000000000540000240000000000
#041360:0000000000140000
#041320:00000000000000000000005400002400
#041361:0000000000000014
#0413a1:00000000000000000000000000000054
#0423a1:0024000000000000
#0423b1:00001323
#042361:0000000000530000
#043321:0000001300230000
#043361:0053
#0443b1:0000001300230000
#044371:0053
#046381:00000000000000000000000000000000135553553355535533565356335653562300000000000000000000000000000000000000000000000000000000000000
#046350:0000000000000000135333533353335323000000000000000000000000000000
#046330:00000000000000000000000000000000005500550055005500000000000000000000000000000000000000000000000000000000000000000000000000000000
#046320:00000000000000000000000000000000000000000000000000560056005600560000000000000000000000000000000000000000000000000000000000000000
#0463b0:0000000000000013
#047370:23
#047370:0000001300000000
#0473b0:0023
#0473b0:0000000000000013
#048370:23
#048370:0000001300000000
#0483b0:0023
#0483b0:0000000000000013
#049370:0033000000000000
#0493b0:0000002300000000
#049320:0000000000000013
#050370:53
#050320:0023000000000000
#0503b1:0013003323000000
#050361:00530000
#050320:0000001323000000
#050360:0000000000000013
#051320:53
#051360:0023000000000000
#051320:0000001300230000
#051360:0053
#051360:0000000000000013
#051350:0000000000000000000000000000000000000000000000000000000000530053
#051340:00000000000000000000000000000053
#052360:53
#052350:0053000023000000000000000000000000000000000000000000000000000000
#052340:00530000000000000000000000000000
#052320:0000001353000000
#052330:0000000000000000000000000053005300530000230000000000000000000000
#052340:00000000000000530053000000000000
#054320:0000000000000012
#055370:00220000
#0553c0:0000001200000000
#055370:00000022
#055321:00000012
#056371:22
#0563c0:12
#056370:00220000
#056321:00120000
#056371:0022
#056381:0000000000160000
#056361:00000000000000000000003600000000
#056341:00000036
#056321:00000000000000000000000000362600
#0573c1:0000001200220000
#057381:0052
#057320:0000000000120022
#057360:00000052
#057371:0000000000000012
#0583c1:0032000000000000
#058391:00320000
#0583b1:0000003200000000
#058381:0022
#058360:0012000000000000
#058330:00320000
#058350:0000003200000000
#058320:0022
#0583c0:0000000000000012
#059370:00220000
#059320:0000001200000000
#059370:00000022
#0593c1:00000012
#060371:22
#060320:12
#060370:00220000
#0603c1:00120000
#060371:0022
#061321:0000001200220000
#061361:0052
#0613c0:0000000000120022
#061380:00000052
#061371:0000000000000012
#062321:0032000000000000
#062351:00320000
#062331:0000003200000000
#062361:0022
#062380:0012000000000000
#0623b0:00320000
#062390:0000003200000000
#0623c0:0022
#0623b0:0000000000000013
#063360:53
#0633b0:0023000000000000
#063320:0000001300230000
#063370:0053
#0633b0:0000000000000013
#064360:53
#0643b0:0023000000000000
#064320:0000001300230000
#064370:0053
#064360:0000000000000014
#0653a0:0024000000000000
#065361:0013000000000000
#065321:00530000
#065341:0000002300000000
#065370:0000001300000000
#0653b0:0053
#065390:0000000000230000
#065361:0000000000130000
#065321:00000053
#065341:0000000000000023
#0663b1:00001323
#066371:0000000000530000
#066321:0000000000000014
#067371:53
#067321:0024000000000000
#067321:0000001400240000
#067371:0053
#0673a1:0000000000000014
#068361:53
#0683a1:0024000000000000
#0683a1:0000001400240000
#068361:0053
#068361:0000000000000014
#069321:0024000000000000
#069360:0014000000000000
#0693b0:00000053000023000000000000000000
#069361:0000001400000000
#069321:00000000000000530000230000000000
#069360:0000000000140000
#0693b0:00000000000000000000005300002300
#070320:0000000000000012
#071370:00520000000000000000000000000000
#071320:00220000
#070371:0000000000000012
#0713c1:00520000000000000000000000000000
#071371:00220000
#0713c1:0000001200002200
#071371:00000000000000000052000000000000
#071370:0000001200002200
#071320:00000000000000000052000000000000
#071320:0000000000000012
#072370:52
#072320:0022000000000000
#0723c0:0000001200220000
#072370:0052
#072360:0000000000000012
#073320:52
#073360:0022000000000000
#073380:0000001200220000
#0733c0:0052
#073321:0000000000120000
#073381:0000000000000022
#0733c0:0000000000000012
#074360:0022000000000000
#074380:0012
#074320:00000022
#074370:0000000000000012
#0753c0:52
#075370:0022000000000000
#074321:0000000000000012
#075371:52
#075321:0022000000000000
#075371:0000001200220000
#075321:0052
#0753c0:0000001200220000
#075370:0052
#075370:0000000000000012
#0763c0:52
#076370:0022000000000000
#076370:0000001200220000
#076320:0052
#076380:0000000000000012
#0773c0:52
#077380:0022000000000000
#077360:0000001200220000
#077320:0052
#077381:0000000000120000
#078381:0022000000000000
#077360:0000000000000012
#078360:0022000000000000
#078320:0012
#078360:00000022
#0783c1:0012
#078381:00000022
