This file was generated by Ched 2.6.4.0.
#TITLE ""
#ARTIST ""
#DESIGNER ""
#DIFFICULTY 0
#PLAYLEVEL
#SONGID ""
#WAVE ""
#WAVEOFFSET 0
#JACKET ""
#REQUEST "ticks_per_beat 480"
#00002: 4
#BPM01: 138
#00008: 01
#TIL00: ""
#HISPEED 00
#MEASUREHS 00
#0011a:1414
#00212:1414
#00318:1414
#00414:1414
#0051a:14
#00512:0014
#0061a:14
#00612:0014
#00718:14
#00714:0014
#00818:14
#00814:0014
#0091a:1414
#00914:00140000
#00910:41
#01012:1414
#01018:00140000
#01118:1414
#01112:00140000
#01214:1414
#0121a:00140000
#0131a:14
#01314:00140000
#01318:0014
#01412:14
#01418:00140000
#01414:0014
#01518:14
#01514:00140000
#0151a:0014
#01614:14
#01618:00140000
#01612:0014
#01918:1414
#01914:00140014
#0201a:1414
#02012:00140000
#01814:14
#01812:0000341434000000
#0171a:14
#01718:0000341434000000
#01710:41
#02314:1414
#02318:00140014
#02412:1414
#0241a:00140000
#02218:14
#0221a:0000341434000000
#02112:14
#02114:0000341434000000
#0271a:14
#02716:00140000
#02712:0014
#02718:00000014
#02814:14
#0281a:00140000
#02812:0014
#02818:00000014
#03112:14
#03116:00140000
#0311a:0014
#03114:00000014
#03218:14
#03212:00140000
#0321a:0014
#03214:00000014
#03414:00000014
#0351a:0014
#03512:00000014
#03518:24
#03514:00240000
#03510:41
#0361a:14
#03614:00140000
#03618:0014
#03612:00000014
#0371a:14
#03712:00140000
#03718:0014
#03714:00000014
#0381a:14
#03816:00140000
#03812:0014
#03818:00000014
#03912:0014
#0391a:00000014
#03914:24
#03918:00240000
#04012:14
#04018:00140000
#04014:0014
#0401a:00000014
#04112:14
#0411a:00140000
#04114:0014
#04118:00000014
#04212:14
#04216:00140000
#0421a:0014
#04214:00000014
#04414:14000014
#04412:00140000
#04318:14000014
#0431a:00140000
#0451a:14000014
#04518:00140000
#04612:14000014
#04614:00140000
#04718:1414
#04714:00140014
#04710:41
#0481a:1414
#04812:00140014
#0501a:1414
#05012:00140000
#05114:1414
#05118:00140014
#05212:1414
#0521a:00140014
#05412:1414
#0541a:00140000
#06218:00000014
#06214:14
#06212:00140000
#06314:0014
#06318:00000014
#06312:24
#0631a:00240000
#0631f:21
#06412:14
#06416:00140014
#0641a:0014
#06410:41
#06512:14
#0651a:00140000
#06514:0014
#06518:00000014
#06612:14
#06616:00140000
#0661a:0014
#06614:00000014
#06718:0014
#06714:00000014
#0671a:24
#06712:00240000
#0681a:14
#06816:00140014
#06812:0014
#0691a:14
#06912:00140000
#06918:0014
#06914:00000014
#0701a:14
#07016:00140000
#07012:0014
#07018:00000014
#07314:14
#07318:0014
#07412:14
#07416:00140000
#0741a:0014
#07414:00000014
#07718:14
#07714:0014
#0781a:14
#07816:00140000
#06118:14
#0611a:00140000
#0591a:14
#05918:00140000
#06012:14
#06014:00140000
#07112:14
#07114:00140000
#0721a:14
#07218:00140000
#0751a:14
#07518:00140000
#07612:14
#07614:00140000
#0551f:11
#02510:41
#01854:64
#01852:0000002400000000
#0175a:64
#01758:0000002400000000
#02258:54
#0225a:0000002400000000
#02152:54
#02154:0000002400000000
#03558:14
#03954:14
#06352:14
#0675a:14
#04358:54
#0435a:00240000
#04454:64
#04452:00240000
#0455a:64
#04558:00240000
#04652:54
#04654:00240000
#06158:54
#0615a:00240000
#06254:64
#06252:00240000
#0595a:64
#05958:00240000
#06052:54
#06054:00240000
#07152:54
#07154:00240000
#0725a:64
#07258:00240000
#0755a:64
#07558:00240000
#07652:54
#07654:00240000
#0173a0:14000024
#017380:0000345434000000
#018340:14000024
#018320:0000345434000000
#021320:14000024
#021340:0000345434000000
#022380:14000024
#0223a0:0000345434000000
#0253a0:14
#025380:0024
#026320:14
#026340:0024
#029320:14
#029340:0024
#0303a0:14
#030380:0024
#0333a0:14
#033380:0034
#0343a0:34
#034380:0024
#043380:1424
#0433a0:00540000
#044340:1424
#044320:00540000
#0453a0:1424
#045380:00540000
#046320:1424
#046340:00540000
#049380:14240000
#049340:00001424
#053340:14240000
#053380:00001424
#0553a0:14
#055380:0024
#056320:14
#056340:0024
#057380:14
#0573a0:0024
#058340:14
#058320:0024
#0593a0:1424
#059380:00540000
#060320:1424
#060340:00540000
#061380:1424
#0613a0:00540000
#062340:1424
#062320:00540000
#071320:1424
#071340:00540000
#0723a0:1424
#072380:00540000
#0753a0:1424
#075380:00540000
#076320:1424
#076340:00540000
#078320:00001424
