This file was generated by Ched 2.7.0.0.
#TITLE ""
#ARTIST ""
#DESIGNER ""
#DIFFICULTY 0
#PLAYLEVEL
#SONGID ""
#WAVE ""
#WAVEOFFSET 0
#JACKET ""
#REQUEST "ticks_per_beat 480"
#00002: 4
#BPM01: 190
#00008: 01
#TIL00: ""
#HISPEED 00
#MEASUREHS 00
#0011a:14
#00214:14
#0031a:14
#00414:14
#00518:14
#00612:14
#00718:14
#00812:14
#04218:0016
#04212:26
#04210:41
#04312:16
#08114:14
#08412:14
#08518:14
#0091a:14
#00910:41
#0101a:14
#01114:14
#01214:14
#01318:14
#01418:14
#01512:14
#01612:14
#0171a:14
#01914:14
#02118:14
#02312:14
#0251a:14
#02510:41
#02714:14
#02918:14
#03112:14
#04118:14
#04418:16
#04412:0016
#04518:16
#05012:2616
#05112:16
#05218:1616
#05318:16
#06218:0014
#06210:0041
#06318:0014
#06412:0014
#06512:0014
#0661a:0014
#0671a:0014
#06814:0014
#06914:0014
#08812:0016
#08818:26
#0881f:00210000
#09012:16
#09018:0016
#09010:41
#09218:16
#09212:0016
#09412:16
#09418:0016
#0971a:0014
#09814:0014
#09918:0014
#10012:0014
#1011a:0014
#10214:0014
#09612:0014
#09618:26
#0741f:0011
#05812:26
#0801a:24
#07010:0041
#0333a0:14
#0343a0:24
#035340:14
#036340:24
#037380:14
#038380:24
#039320:14
#040320:24
#046320:1636
#047320:26
#048380:1636
#049380:26
#054320:1636
#055320:26
#056380:1636
#057380:26
#0583a0:0014
#0593a0:0024
#060320:0014
#061320:0024
#070380:0014
#071380:0024
#072320:0014
#073320:0024
#0743a0:0014
#0753a0:0024
#076340:0014
#077340:0034
#078340:0024
#0823a0:14
#0833a0:24
#086320:14
#087320:24
#089380:1626
#091320:1626
#093380:1626
#095320:1626
#103380:0014
#104380:34240000
