This file was generated by Ched 2.7.0.0.
#TITLE ""
#ARTIST ""
#DESIGNER ""
#DIFFICULTY 0
#PLAYLEVEL
#SONGID ""
#WAVE ""
#WAVEOFFSET 0
#JACKET ""
#REQUEST "ticks_per_beat 480"
#00002: 4
#BPM01: 190
#00008: 01
#TIL00: ""
#HISPEED 00
#MEASUREHS 00
#0011b:00131300
#00115:0000001300001300
#00118:1300000000130000
#00112:1300000000000013
#00117:0000000000000013
#00219:0013000000000000
#0021b:0000001313000000
#00214:0013000000000000
#00216:0000001300000000
#0051b:2313
#00518:0000130000000023
#00512:1313
#00515:0000130000000013
#00513:0000003300330000
#0051a:0000003300330000
#00613:0013000000000000
#00612:0000001313000000
#00618:0000000000130013
#00615:00000013
#0061a:0023000000000000
#0061b:0000002323000000
#00718:0000001313000000
#00715:1300000000000013
#00712:00130000
#0071b:00000013
#00815:13000000000000000000000000000013
#00812:00130013
#00818:0000001313000013
#0081b:00000013
#00918:0000130000130000
#00915:0000000013000023
#00912:00130000
#0091b:2300000000000023
#00910:41
#01018:0013130000130000
#01012:0000001300000013
#0101b:0013
#01015:00000013000000000000000013000000
#01118:1400000000000013
#01114:00140000
#0111b:0013
#01115:0000000000130000
#01112:0000000000000013
#01215:0013130000130000
#0121b:0000001300000000
#01212:0013
#01218:00000013000000000000000013000000
#01315:0000130000130000
#01318:0000000013000023
#0131b:00130000
#01312:2300000000000023
#0141b:0000001300000013
#01412:0013
#01415:0013130000130000
#01418:00000013000000000000000013000000
#01514:14
#01518:0000140000130000
#01512:0013
#01515:0000000000000013
#0151b:0000000000000023
#01618:0013000013000000
#01615:0000001300000000
#01612:0023000013000000
#01616:0000000000000013
#0161b:0000002300001300
#01712:0000130000000023
#01717:0000001300000000
#01714:0013
#01719:0000000000130000
#01716:00000013
#0171b:2300000000000013
#04218:00130013
#04215:0000001300000013
#0421b:0000000013000013
#04212:2400000000130000
#0421a:24
#04210:41
#04312:0013000000001300
#04318:0013000000000000
#04316:0000001313000000
#0431b:0000001313000000
#0441b:1300000000130000
#04415:00130013
#04418:0000001300000013
#04412:0000000013000013
#0451b:0013000000001300
#04515:0013000000000000
#04512:0000001313000000
#04517:0000001313000000
#0461b:0000130013000023
#04618:0000000000130000
#04615:00130013
#04612:1300000000000023
#04617:23
#04715:0000000013000013
#0471b:0000002300130000
#04718:00000013
#04716:0024000000000000
#04712:0000002300000000
#0481b:00131300
#04812:13000013
#04816:0000001300000000
#04817:0000000000000013
#04912:13
#04916:00130000
#0491b:0000001313000000
#0501b:0013
#05018:0000000000130023
#05015:00000013
#0501a:00240000
#05012:0000240000000023
#05218:00130013
#05215:0000001300130023
#05212:0013
#0521b:0000000013000023
#05312:0023000000001300
#0531b:0000002323001300
#05318:0023000000000000
#05315:0000002323000000
#05712:0000001313001300
#0571b:13002313
#05717:00130000
#0581b:0013
#05819:00000013
#06012:0013000000000000
#06014:00130000
#06016:0000001300000000
#0601b:0000000000130000
#06019:00000013
#06017:0000000000000013
#06119:13
#0611b:0013000000130000
#06115:0013000000230000
#06118:0000001300000013
#06112:0000002300000023
#06215:00130000
#06218:1300001300000000
#0621b:0013000023002300
#06212:2313
#06216:00000013
#06210:0041
#01818:0013000000130013
#0181b:0000001300000000
#01815:0023000000001300
#01812:0000002300000000
#0191b:1300130000000013
#01915:0000001300000013
#01912:00001313
#02017:0013
#02012:0013
#02014:00000013
#02019:00000013
#02212:0013000013000000
#02215:00130013
#02218:0000001300000013
#0221b:0013
#0231b:1323000000000023
#02315:1323001300000000
#02312:0000000013230023
#02318:0000000013230000
#02415:0013001300000000
#02418:0000130013000013
#0281b:0013
#0281b:0013
#02812:0013
#02815:00000013
#02818:0000000000000013
#0301b:1300130000000013
#03016:0013000000000000
#03018:0000001300000000
#03015:0013
#03012:0000000000130000
#03116:00120000
#03114:0012
#03112:00000012
#0311c:00220000
#0311a:0022
#03118:00000022
#03216:1200001200000000
#03212:0000000000120000
#03215:0000000000000013
#03218:0000000000220000
#0321c:2200002200000000
#0341b:1300000000130000
#03418:00130000
#03412:0000001300000000
#03416:0000000000130000
#03419:00000013
#03417:0000000000000013
#03318:00130013
#03312:1313
#03315:00130013
#0331b:1313
#0631b:23130013
#06312:1300000000000013
#06317:0013
#06314:0000001300000000
#06416:00000012
#0641c:00000012
#06415:0013000000000000
#06412:0000001300000000
#0661b:1313
#06612:0013000023002300
#06618:00130000
#06615:0000001300000000
#06617:00000013
#0671b:1300001300000023
#06715:0000000013000023
#06712:2300130000230000
#06718:0000000000230000
#06818:00000012
#06812:0023000000001200
#06817:0023000000000000
#0211b:1300000013130000
#02118:00130000
#02116:13
#02112:00003333130000000000000000001300
#02117:0000000000000013
#02117:0000000000000013
#02114:0000003300000000
#0251b:0000130000000023
#02516:0000001300000000
#02519:0013
#02514:0000000000130000
#02517:00000013
#02512:2300000000000013
#02510:41
#02615:0013000000130013
#02612:0000001300000000
#02618:0023000000001300
#0261b:0000002300000000
#02712:1300130000000013
#02718:0000001300000013
#0271b:00001313
#03512:0013
#03515:00130013
#03518:00130000
#0351b:0000000000000013
#03612:1313000000130000
#03618:0000000000130013
#03617:0013000000000000
#03614:00130000
#03616:0000001300000000
#04115:13
#04118:13
#04114:0033000000000000
#04113:00330000
#04119:0033000000000000
#0411a:00330000
#07012:1300000000130000
#0701b:0013000013000013
#07015:00131300
#07018:0000001300001300
#07010:0041
#07118:0000001300000000
#07115:1313
#0711b:0000130000130000
#07117:0000000000000013
#07112:0013000000000013
#07216:0013000000000000
#07217:0000001300001300
#0721b:0013000000000000
#07212:0000001300001300
#07319:13
#0731b:0000132300000000
#07317:00000013
#07314:13
#07316:00130000
#07312:0000000000001323
#07415:0000001300000000
#07416:0000000000000013
#07418:00130000
#0741f:0011
#0741b:00002323
#07516:0000001400000000
#07517:0000000000000013
#0751b:23230000
#07512:00002323
#08712:1414141424000000
#0871a:1414141424000000
#09518:00000013
#09515:00000013
#09512:1300000023000013
#0951b:0000001313000013
#09516:00130000
#10418:13
#10412:13
#09616:0013
#09612:00000013
#09617:00000013
#0961b:0023
#09715:13000000000023000000001300000000
#09718:0013000000131300
#09712:0000000000000013
#0971b:0000002300000000
#09816:0013000000000000
#09817:0000001300000000
#0981a:0014
#09812:00000014
#0991b:1300000000000013
#09918:00001300000013000000001300000000
#09912:0000001300000000
#09915:1300000000131300
#10018:13
#10015:0013000000000000
#1001b:00130013
#10016:00000013
#10012:00132300
#10118:13000000000023000000001300000000
#10115:0013000000131300
#1011b:0000000000000013
#10112:0000002300000000
#10312:1300000000130000
#10312:13
#10318:0013000000230000
#10318:0013000000000000
#1031b:0000001300000013
#1031b:0000001300000000
#10315:0000002300000023
#07818:0013
#07815:0013
#0781b:0023000000000000
#07812:0023000000000000
#07819:0000003300330000
#0781a:00330033
#07814:0000003300330000
#07813:00330033
#05615:00131300
#05618:0013001300000000
#05612:0000000000130013
#0561b:13000013
#00315:1300000000130000
#00312:00131300
#00318:0000001300001300
#0031b:0000000000000013
#00316:0000000000000013
#00414:0013000000000000
#00412:0000001313000000
#00419:0013000000000000
#00417:0000001300000000
#00415:00000013
#0291b:13
#02915:0013000000000000
#02912:0013
#02918:0000000000130000
#05512:0000001300000013
#05515:0023000023001300
#05518:0000002300130000
#0551b:0013000013000000
#05415:1300001300000000
#05418:0000000013330013
#05412:0000000023330023
#0541b:2300002300000000
#10217:0013000000000000
#10216:0000001300000000
#10212:0014
#1021a:00000014
#0591b:1313
#05919:00130000
#05918:0000000000000013
#08014:0000121200000000
#08012:00000023
#08018:00000023
#08116:0000121200000000
#08112:00000023
#08118:00000023
#08218:0000121200000000
#0821b:00000023
#08215:00000023
#0831a:0000121200000000
#0831b:00000023
#08315:00000023
#08418:0000121200002300
#08412:00000023
#08516:0000121200000000
#08515:00000023
#0851b:00000023
#08618:0013
#08614:0000121200000000
#08615:0000000000130000
#08612:00000023
#0861b:00000023
#08812:00241300
#08815:0000000000130023
#08818:00000013
#0881a:00240000
#0881b:0000000000000023
#0881f:00210000
#09015:00130013
#09018:0000001300130023
#0901b:0013
#09012:0000000013000023
#09010:41
#0911b:0023000000001300
#09112:0000002323001300
#09115:0023000000000000
#09118:0000002323000000
#09418:00131300
#09415:0013001300000000
#0941b:0000000000130013
#09412:13000013
#0931b:0000001300000013
#09318:0023000023001300
#09315:0000002300130000
#09312:0013000013000000
#09218:1300001300000000
#09215:0000000013330013
#0921b:0000000023330023
#09212:2300002300000000
#03717:0000001300000000
#03716:0000000000000014
#03712:23232323
#03816:0000001300000000
#03812:0000000000000026
#0381b:23232323
#03918:2600002600000023
#03912:0000260000260000
#04012:2300000000230000
#04015:00230000
#0401b:0023000000230000
#04018:0000002300000000
#04014:0000000000000033
#04013:00000033
#04019:0000000000000033
#0401a:00000033
#07618:0000002600002600
#07612:2300230026000026
#07718:0026000000002300
#07715:0000002300000023
#0771b:0023
#07712:0000000000230000
#05115:0023000000000000
#05118:0000002323000000
#05112:0000002323000000
#0511b:0023000000000000
#08918:0023000000000000
#08915:0000002323000000
#0891b:0000002323000000
#08912:0023000000000000
#0055b:5353
#00558:00230000
#00552:6363
#00555:00230000
#00755:53
#00752:00230000
#00758:0063
#0075b:00000023
#00855:5313
#00852:00230000
#0095b:13
#00952:00130000
#01158:14
#01154:00140000
#01352:13
#0135b:00130000
#01258:00000053
#01554:14
#01558:00140000
#0175b:13
#01652:0063
#0425a:14
#04252:14
#04356:0053
#0435b:0053
#04352:00000063
#04357:00000013
#04655:00630000
#04657:13
#04852:63
#0485b:0053
#04952:6333
#04956:00230000
#05252:33
#0525b:43
#0535b:00001313
#05352:00000013
#05355:0013
#0575b:53001353
#05752:00000063
#05757:00230000
#0605b:0000001300000000
#06056:0000005300000000
#06258:53
#0625b:0023000000000000
#06252:0053
#06256:00000053
#02552:13
#0305b:0000000000000013
#03052:0000000000530000
#00152:13
#00158:13
#0035b:13
#00355:13
#01955:0000000000000053
#0195b:1300000000000053
#01952:0013
#02156:53
#02152:00230000
#02157:0000000000000023
#0215b:0000000000530000
#02458:0053
#02455:0000005300000000
#02758:0000000000000063
#02752:1300000000000063
#0275b:0013
#03256:52
#0325c:52
#03355:00000053
#03352:1313
#03358:00130000
#03558:00630000
#0355b:0000000000000063
#03958:1600001600000000
#04058:0000001300000000
#04055:00130000
#04052:0000000000630000
#0405b:0000000000530000
#04155:23
#04158:23
#04152:0000003300000000
#0415b:0000004300000000
#07055:0063
#07052:0000000000230000
#07058:00000053
#0705b:0000000000000023
#07155:63
#07152:0023000000000000
#07652:0000000016000016
#07758:00000013
#07755:0000000000000013
#06856:0000001300000000
#0685b:0000001300000000
#09558:00000053
#09555:00000063
#09552:6300000013000023
#0955b:0000000000000023
#09556:00230000
#10458:63
#0985a:0014
#09852:00000014
#1005b:00530000
#10056:00000013
#10052:0013
#09657:00000013
#0965b:0013
#07858:0023
#07855:0023
#0785b:0053000000000043
#07852:0063000000000033
#03452:0000005300000033
#03456:0000000000230000
#03657:0023000000000000
#0365b:0000004300000000
#06352:5300000000000013
#0665b:0063
#06657:00000063
#0675b:63
#04456:13
#10355:0000001300000013
#10358:0000000000130000
#0295b:53
#02955:0053000000000000
#02952:0063
#02958:0000000000630000
#05655:0053
#05652:0000000000230000
#0565b:53
#05658:0023000000000000
#05455:53
#0545b:53
#05458:0053
#05452:0053
#10252:0014
#1025a:00000014
#05955:0000000000000013
#05958:0000000000000013
#05052:00140000
#0505a:00140000
#06452:0000001300000000
#06455:0013000000000000
#06457:0000001300000000
#0915b:00000013
#09152:00001313
#09158:0013
#09458:0063
#0945b:0000000000230000
#09452:63
#09455:0023000000000000
#09258:63
#09255:0063
#09252:63
#0925b:0063
#08852:00140000
#0885a:00140000
#09052:33
#0905b:43
#04552:0063
#0455b:00000053
#04556:00000013
#04557:0063
#07252:0000001300000000
#07257:0000001300000000
#002360:0013
#002320:00000023
#002371:00000013
#0033b1:23
#004371:0013
#0043b1:00000023
#0053b1:1333
#005381:00330023
#0053a1:0000003300330000
#005320:1333
#005350:00330023
#005330:0000003300330000
#007350:1323
#007320:00530000
#007381:0013
#0073b1:00000053
#008381:23
#008350:1323
#008320:00530000
#012380:00000013
#0133b0:23
#016320:0013
#016360:00000023
#019350:13230000
#019380:00001323
#0193b0:0000000000000013
#020380:00230000
#019351:0000000000000013
#020321:00230000
#021361:1323
#021321:00003333330000000000000000000000
#021341:0000003300000000
#0213b1:0000000000130000
#021371:0000000000000033
#0223b1:0023000000000000
#024351:0000001300000000
#024321:00000023
#024380:0013
#0243b0:00000023
#027380:13230000
#027350:00001323
#027320:0000000000000013
#028350:00230000
#027381:0000000000000013
#0283b1:00230000
#0293b1:13
#029371:0000002300000000
#029350:0013000000000000
#029320:0000002300000000
#029320:0013
#029360:0000000000000023
#029381:0000000000130000
#0293b1:0000000000000023
#030321:0000000000130000
#030361:0000000000000023
#032361:12
#032321:00220000
#0323c0:12
#032380:00220000
#033350:00000013
#034320:23
#034320:0000001300000023
#034360:0000000000530000
#035380:00130000
#0353b0:0023
#0353b0:0000000000000013
#036370:0053000000000000
#0363b0:0000002300000000
#0373b0:13
#037370:00230000
#037370:0013
#0373b0:00000023
#038320:13
#038360:00230000
#038360:0013
#038320:00000023
#040320:0000000000130000
#040330:00000033
#040340:0000000000000033
#041350:33
#041340:0033000000000000
#041330:00330000
#041320:0000002300000000
#0403b1:0000000000130000
#0403a1:00000033
#040391:0000000000000033
#041381:33
#041391:0033000000000000
#0413a1:00330000
#0413b1:0000002300000000
#043361:0013
#043321:00000033
#044361:23
#0433b0:0013
#043370:00000023
#045371:0013
#0453b1:00000033
#046371:23
#045320:0013
#045360:00000023
#046351:00130000
#046321:0023
#048321:13
#048361:00230000
#0483b1:0013
#048371:00000023
#049321:1323
#049361:00330000
#050321:14003434240000000000000000000000
#0503a0:14003434240000000000000000000000
#0513b0:00000013
#051380:0000000000000053
#0523b0:23
#051321:00000013
#051351:0000000000000053
#052321:23
#054351:13
#054321:00230000
#0543b0:13
#054380:00230000
#054320:0000000013330000
#054350:00000023
#054381:0000000013330000
#0543b1:00000023
#0563b1:13230000
#056381:0053000000000000
#056351:00001323
#056321:0000000000530000
#0573b1:1323
#057371:00330000
#0573b1:00000013
#058381:23
#057320:00000013
#058350:23
#058360:0000000000130000
#058350:00000000000000000000003300000000
#058340:00000023
#058320:0000000000000013
#058330:00000000000000000000000000000033
#059340:23
#059360:0013000000000000
#059350:00000033000000000000000000000000
#059340:00230000
#059320:0000001300000000
#059330:00000000000000330000000000000000
#059340:0023
#059350:0000000000130023
#060370:0013000000000000
#060390:00330000
#0603b0:0000002300000000
#060361:0000001300000000
#061321:23
#062381:13230000
#0623b1:0053000000000000
#062321:0013
#062361:00000033
#063321:33
#063361:00230000
#063321:0013
#063361:00000023
#063371:0000000000000013
#0643b1:0033000000000000
#064371:0000002300000000
#065321:12220000
#065380:12220000
#0653c0:0000001200000022
#065380:0000000000320000
#065361:0000001200000022
#065321:0000000000320000
#0663b1:0013
#066371:00000033
#0673b1:33
#067371:00230000
#068371:0013000000000000
#0683b1:0000532300000000
#068320:0013000000000000
#068360:0000532300000000
#0693c0:12220000
#069361:12220000
#069321:0000001200000022
#069361:0000000000320000
#069380:0000001200000022
#0693c0:0000000000320000
#070350:00001323
#070320:0000000000530000
#070381:00000013
#0703b1:0000000000000053
#071381:23
#071350:13230000
#071320:0053000000000000
#0733b0:0000001300230000
#073361:0000001300000000
#073321:0000000000230000
#073321:0000000000000013
#074321:0023000000000000
#073370:0000000000000013
#0743b0:0023000000000000
#074320:0013
#074360:00000023
#075360:13
#075320:00230000
#0753b0:0013
#075370:00000023
#076370:13
#0763b0:00230000
#0783b0:0013000000000023
#0783a0:00330033
#078390:0000003300330000
#078380:0033
#078321:0013000000000023
#078331:00330033
#078341:0000003300330000
#078351:0033
#0883a1:14003434240000000000000000000000
#088320:14003434240000000000000000000000
#089320:00000013
#089350:0000000000000053
#090320:23
#0893b1:00000013
#089381:0000000000000053
#0903b1:23
#092381:13
#0923b1:00230000
#092320:13
#092350:00230000
#0923b0:0000000013330000
#092380:00000023
#092351:0000000013330000
#092321:00000023
#094321:13230000
#094351:0053000000000000
#094381:00001323
#0943b1:0000000000530000
#095321:1323
#095361:00330000
#095351:00000013
#095321:0000000000000053
#096351:23
#095380:00000013
#0953b0:0000000000000053
#096380:23
#0983b0:1323000000000000
#098320:0000132300000000
#1003b0:00130000
#100370:0023
#102320:1323000000000000
#1023b0:0000132300000000
#104380:13
#1043b0:00230000
