This file was generated by Ched 2.7.0.0.
#TITLE ""
#ARTIST ""
#DESIGNER ""
#DIFFICULTY 0
#PLAYLEVEL
#SONGID ""
#WAVE ""
#WAVEOFFSET 0
#JACKET ""
#REQUEST "ticks_per_beat 480"
#00002: 4
#BPM01: 190
#00008: 01
#TIL00: ""
#HISPEED 00
#MEASUREHS 00
#00115:00130013
#00118:0000001300130000
#00112:0013
#0011b:1300000000000013
#00618:0023000000130000
#00615:00000013
#0061b:0000002300000013
#00612:0023
#00715:13
#00712:0013
#01715:00130013
#0171b:2300001300000000
#01712:0013
#01718:0000000000130000
#0171a:0000000000000024
#04218:00130013
#04215:0000001300130000
#0421b:0013
#04212:2400000000000013
#04210:41
#04318:0013000000000000
#0431b:0000001300000000
#04315:0013
#04312:00000013
#04618:2300000000130000
#04615:00130013
#0461b:0000000000000023
#04715:00001313
#04718:0023000000130000
#04712:0000000000000013
#0471b:0000002300000000
#0481b:13
#04812:0013
#0491b:13
#04918:00130000
#04915:0000000000000013
#04919:0000003300000000
#05018:00000013
#05015:0000001300130000
#0501b:0013
#05012:0000000000000024
#0511b:00000013
#05116:0024000000000000
#0511a:0000002400000000
#05114:0024
#05218:1300000000130000
#05215:00000013
#05212:0013
#0521a:0000000000000024
#0601b:0013000000000000
#06015:00000013
#06018:0000331300000013
#06112:1300002300000023
#0611b:0013000000130000
#06118:0000001300000013
#06115:0000000000230000
#06218:13
#06212:2313
#06215:00000013
#06210:0041
#01815:0000000000130013
#01818:00000013
#01812:0024000000000000
#0181a:0000002400000000
#02015:0013
#02018:00000013
#02218:0000130000000013
#0221b:0000001300000000
#02215:0013000000000000
#02315:1300001300000000
#02318:0013
#02312:0000000000230023
#0231b:0023000000000023
#02415:0013001300000000
#02418:00131300
#0301b:13
#03014:0013000000000000
#0301a:00130000
#03013:0000001300000000
#03019:0013
#03012:0000000000130000
#0341b:1300001300000000
#03415:00130000
#03417:0000000000130000
#03419:00000033
#03312:00130013
#03318:00130000
#0331b:1313
#03315:0013
#0641b:0013000000001300
#06412:0000001300000000
#06415:0013000000001300
#06418:0000001300000000
#01915:0000001300000013
#02115:13
#02118:0013
#0211b:0000000000330000
#02112:00003333330000000000000000000000
#02812:0013
#02818:00000013
#02815:0000000000000013
#03215:0000130000000013
#0321b:00130000
#03212:1300003300000000
#03218:2300003300000000
#0351b:0013
#03512:0000130000000013
#03518:00000013
#03515:0000000000130000
#03615:0000000000000013
#03618:0000000000130000
#03616:0013000000000000
#03614:33330000
#03716:0000000000000014
#03712:0000001400000000
#04116:14
#04118:0034000000000000
#04119:00340000
#07012:13
#07018:1313
#0701b:00000013
#07010:0041
#07115:0000001300130000
#07118:1300000013000013
#07112:0000000000000013
#07215:0013000000000000
#07218:0000001300001300
#0721b:0013000000000000
#07212:0000001300000000
#07315:1300000000001323
#07318:0000132300000000
#07418:0000001300000000
#0741a:0000000000000014
#0741f:0011
#06312:13
#06318:0000001300000013
#00215:0013000000000000
#00218:0000001300000000
#0291b:0013000000000000
#02912:0000000000130000
#00318:00130013
#00315:0000001300130000
#0031b:0013
#00312:0000000000000013
#00418:0013000000000000
#00415:0000001300000000
#00816:13
#02518:00130013
#02512:2300001300000024
#0251b:0013
#02515:0000000000130000
#02510:41
#02618:0000000000130013
#02615:00000013
#0261a:0024000000000000
#02612:0000002400000000
#02718:0000001300000013
#0381a:0000001400000000
#03818:0000000000000024
#04418:00130013
#0441b:0000001300000000
#04412:0000000013000013
#04415:0000000000130000
#0451b:0013000000001300
#04512:0000001300000000
#04518:0013
#05515:0023000000130013
#05518:00000013
#05512:0000002300000000
#0551b:0023
#05618:13
#0561b:0013
#05717:13
#0571b:0023
#0651b:0000001300000013
#06518:1300000000130000
#06515:0000001300000013
#06512:1300000000130000
#06715:0000001300000013
#06715:0000000000000023
#06718:0013
#0671b:13
#06712:0000000000230000
#0661b:1313
#06615:13
#06618:00000013
#06812:0023000000001300
#06818:0023000000001300
#06815:0000002300000000
#0681b:0000002300000000
#06912:0000001300000013
#06915:1300000000130000
#0691b:1300000000130000
#06918:0000001300000013
#07516:0000001400000000
#07512:0000000000000014
#07816:0014
#07812:0024000000000000
#07814:0000003400340000
#07813:00340034
#0141b:0013000000000013
#01415:00130013
#01418:0000001300130000
#01412:0013
#01512:1300130000130000
#01518:0013
#01515:0000000000000023
#01218:00130013
#01215:0013000000130000
#0121b:0013
#01212:0000001300000000
#01012:0013000000000013
#01018:00130013
#01015:0000001300130000
#0101b:0013
#00912:00130000
#00918:0013
#00915:0000000000130023
#0091b:2300000000000023
#00910:41
#01118:0000000000000013
#01112:0000000000000013
#0111b:1300130000130000
#01115:0013
#10112:0000000000130000
#10115:0013002300000013
#10118:13000013
#1011b:0000002300000000
#10012:13000013
#10015:00130000
#10018:0013000000000000
#1001b:0023
#1031b:0013000000000000
#10315:1300000000230000
#10318:0000002300000000
#10312:0000000000000023
#1021b:13001313
#10212:0000001300000000
#10218:00130000
#10215:0013000000000000
#09915:0000001300001300
#09918:1300000000130000
#0991b:0000001300000013
#09912:0013000000000000
#0971b:0000000000130000
#09718:0013002300000013
#09715:13000013
#09712:0000002300000000
#0961b:00000013
#09612:0023
#09812:13001313
#0981b:0000001300000000
#09815:00130000
#09818:0013000000000000
#00512:13
#00515:0000331333000023
#0051b:0000331333000000
#00518:23
#0541b:13
#05418:0000331333000023
#05412:0000331333000000
#05415:23
#03912:0000000000140000
#03918:00240000
#03914:2400002400000000
#0771a:0014000000000024
#07718:0000000000240000
#07712:00000024
#07714:0024
#08815:00260013
#08812:0013
#08818:0000000000130000
#0881a:0000000000000024
#0881f:00210000
#08912:0000002400001300
#08916:0024000000000000
#08918:0024
#09015:1300000000130000
#09018:00000013
#0901b:0013
#09012:0000000000000024
#09010:41
#09318:0023000000130013
#09315:00000013
#0931b:0000002300000000
#09312:0023
#09415:13
#09412:0013
#09516:13
#09512:0023
#09212:13
#09215:0000331333000023
#0921b:0000331333000000
#09218:23
#0131b:00130000
#01315:0013
#01318:0000000000130023
#01318:0000000000000023
#01312:2300000000000023
#01312:0000000000000023
#03115:00130000
#03114:0013
#03113:00000013
#03119:00000023
#0311b:00230000
#0311a:0023
#08018:0013
#08015:0000000000001333
#08012:00130000
#0801b:23
#08118:00000013
#08112:0013000000000000
#08115:0000003300000000
#08215:0013
#08218:0000000000001333
#0821b:00130000
#08212:23
#0831b:0013000000000000
#08318:0000003300000000
#08415:00130000
#08418:0013
#08412:0000000000001333
#0841b:23
#08515:0013000000001300
#08512:0000003300000000
#08618:13
#0861b:0013
#08717:13
#0401a:0000240000240000
#04012:0000002400000000
#04014:0024000000000000
#04018:2400000000000034
#04019:00000034
#05316:0024000000000000
#05312:0000002400000000
#05318:0024
#07614:0000002400002400
#07618:0000000024000024
#01618:0023000000000000
#0161b:0000002300000000
#09116:0024000000000000
#0911a:0000002400000000
#09114:0024
#05913:00000034000000340000000000000000
#05813:00000000000000000000003400000034
#00755:53
#00752:0063
#04252:14
#04355:0053
#04352:00000063
#04655:00630000
#04658:13
#0485b:53
#04852:0063
#0495b:5343
#04958:00230000
#0605b:0053000000000000
#06058:0000002300000000
#01955:0000000000000053
#02155:63
#02158:0063
#02458:0053
#03052:0000000000530000
#03055:0000000000000013
#04156:24
#0415a:0000004400000000
#0405a:0000000000540000
#0345b:0000006300000043
#03457:0000000000230000
#06252:5353
#06255:00000053
#06258:53
#06352:53
#04455:13
#0015b:13
#0295b:0053000000000000
#02952:0000000000630000
#05358:0014
#00352:13
#00856:53
#00852:0013
#0175b:13
#02758:0000000000000063
#02552:13
#0325b:00530000
#03252:53
#03255:00530000
#03258:53
#03552:0000000000000053
#03656:0023000000000000
#03652:0000003300000000
#0455b:00000053
#04558:0053
#0515b:00000063
#05258:63
#05658:63
#0565b:0053
#05757:63
#0575b:0013
#05955:0000000000000014
#06452:0000001300000000
#06458:0000001300000000
#06655:53
#0665b:5363
#06658:00000063
#07052:63
#07058:6353
#0705b:00000053
#0675b:63
#07158:53
#07856:0024
#07852:0064000000000034
#08855:00160000
#09652:0013
#0965b:00000013
#1005b:0013
#10052:00000013
#00552:63
#00558:63
#00555:0000002300000000
#0055b:0000002300000000
#0545b:53
#05458:0000002300000000
#05452:0000002300000000
#05455:53
#03954:0000005400000000
#03952:0000000000540000
#0775a:0064000000000000
#07658:0000000000000064
#08952:00000053
#09055:53
#09455:53
#09452:0063
#09556:53
#09552:0013
#09252:63
#09255:0000002300000000
#0925b:0000002300000000
#09258:63
#09154:0014
#00952:00130000
#0095b:13
#0135b:00130000
#01352:13
#06855:0000001300000000
#0685b:0000001300000000
#08055:00000053
#08152:0023000000000000
#08258:00000063
#0835b:0023000000000000
#08452:00000063
#08555:0023000000000000
#0875b:0013
#08757:63
#0865b:0063
#08658:63
#002320:0013
#002350:00000033
#003320:23
#0043b0:0013
#004380:00000023
#005320:13000023
#005350:0000333333000000
#005381:13000023
#0053b1:0000333333000000
#007351:13
#007321:0000003333000000
#007361:0000000000000033
#008361:33
#008321:0000003323000000
#016351:0013
#016321:00000023
#0193b1:13
#019381:00230000
#019381:0013
#0193b1:00000023
#019351:0000000000000013
#020321:00230000
#021351:13
#021321:00003333330023000000000000000000
#021381:0013
#0213b1:0000000000330023
#022351:0013
#022321:00000023
#024381:0013
#0243b1:00000023
#027321:13
#027351:00230000
#027351:0013
#027321:00000023
#027381:0000000000000013
#0283b1:00230000
#0293b1:1333000000000000
#029381:0000002300000000
#029321:0000000013330000
#029351:0000000000000023
#030321:0000000000130000
#030351:0000000000000023
#032381:1300003300230000
#0323b1:00330000
#032320:1300003300230000
#032350:00330000
#0343b0:0000001300000023
#034370:0000000000330000
#034390:00000033
#035320:0000000000000013
#036340:33330000
#036360:0033000000000000
#036320:0000002300000000
#0373a0:14
#037360:00240000
#037360:0014
#0373a0:00000024
#038320:14
#038360:00240000
#038360:0014
#038320:00000024
#039340:0000001400000024
#039320:0000000000340000
#0403a0:0000000000140000
#040390:00000034
#040380:0000000000000034
#041360:34
#041380:0034000000000000
#041390:00340000
#0413a0:0000002400000000
#043350:0013
#043320:00000033
#044350:23
#045380:0013
#0453b0:00000033
#046380:23
#046350:00130000
#046320:0023
#0483b0:13
#048380:0000002300000000
#048320:0013
#048350:0000000000000023
#0493b0:1323
#049380:00330000
#049390:0000003300000000
#0503b0:13
#050380:00230000
#0513b0:00000013
#052380:33
#0523b0:00230000
#0543b0:13000023
#054380:0000333333000000
#054351:13000023
#054321:0000333333000000
#056381:13
#0563b1:0000003333000000
#056371:0000000000000033
#057371:33
#0573b1:0000003323000000
#057361:00000013
#058321:23
#0573b0:00000013
#058370:23
#058320:0000000000140000
#058330:00000000000000000000003400000034
#058350:0000000000003434
#059320:3434000034000000
#059330:00000034000000340000000000000000
#059350:0000343400340024
#0603b0:0013000000230000
#060380:0000333300000000
#062380:13
#0623b0:00230000
#062321:13
#062351:00230000
#062321:0013
#062351:00000033
#063321:33
#063351:00230000
#063351:0013
#063321:00000023
#066351:13
#066321:00230000
#0663b0:13
#066380:00230000
#0663b0:0013
#066380:00000033
#0673b0:33
#067380:00230000
#070380:13
#0703b0:00230000
#070321:13
#070351:00230000
#070381:0013
#0703b1:00000033
#071381:33
#0713b1:00230000
#073381:0000001300000000
#0733b1:0000000000230000
#073351:0000000000000013
#074321:0023000000000000
#074321:0014
#074361:00000024
#075361:14
#075321:00240000
#0753a1:0014
#075361:00000024
#076361:14
#0763a1:00240000
#076381:0000000000000014
#0773a1:0034000000000000
#077381:0000002400000000
#078321:0014000000000024
#078331:00340034
#078341:0000003400340000
#078361:0034
#080351:0000000000001333
#081321:0033000000000000
#081351:0000003323000000
#082381:0000000000001333
#0833b1:0033000000000000
#083381:0000003323000000
#084321:0000000000001333
#085351:0033000000000000
#085321:0000003323000000
#086381:13
#0863b1:0000003333000000
#086371:0000000000000033
#087371:33
#0873b1:0000003323000000
#088351:16003636260000000000000000000000
#089321:00000013
#090351:33
#090321:00230000
#092321:13000023
#092351:0000333333000000
#092380:13000023
#0923b0:0000333333000000
#094350:13
#094320:0000003333000000
#094360:0000000000000033
#095360:33
#095320:0000003323000000
#095320:00000013
#096360:23
#095371:00000013
#0963b1:23
#104381:13
#1043b1:00230000
