This file was generated by Ched 2.7.0.0.
#TITLE ""
#ARTIST ""
#DESIGNER ""
#DIFFICULTY 0
#PLAYLEVEL
#SONGID ""
#WAVE ""
#WAVEOFFSET 0
#JACKET ""
#REQUEST "ticks_per_beat 480"
#00002: 4
#BPM01: 190
#00008: 01
#TIL00: ""
#HISPEED 00
#MEASUREHS 00
#0011c:00120012
#00119:0000001200000000
#00116:0012
#00113:0000000000120000
#00112:1200000000000012
#00117:0000000000000012
#00118:12
#0021c:0012001212000000
#00217:0012120000000000
#00514:0000000000120012
#00516:12121200
#00513:0000001200000000
#00518:22121200
#00512:0012000000000000
#0051b:0000001200000000
#0051c:0012000000000000
#0051a:0000000000120022
#00616:0012000000000000
#00612:0000001200000000
#00615:00001212
#00617:0000000000120012
#00618:0022000000000000
#0061c:0000002200000000
#00619:0022
#0071a:12120000
#00716:12
#00712:0012000000000000
#00717:0000001200000012
#00714:00001212
#00718:0012
#0071c:0000000000120000
#00812:0016161600001500
#00819:00000015
#00815:00000000000000000000000000000013
#00818:0026262600000013
#0081a:12
#00817:0012
#0091b:00000000130000130000000000000000
#00916:0000000013130000
#00912:1300160000130024
#00918:26
#0091a:0000000000000024
#00910:41
#0101b:00131300
#01015:0013001300000013
#01019:0000000000130000
#01017:00000013
#01012:00001313
#01018:00000013000000000000000000000013
#01112:13000000000000130000130000001300
#01115:00130000
#01116:0013
#01117:0000000000000013
#0111b:1300000000130000
#01118:00130000
#01218:00001300000013000000000000130013
#01212:00131313
#0121b:00001313
#01215:00000013000000000000130000001300
#01516:0000000000000014
#0151b:13000000000000130000130000000000
#01518:00130000
#01517:0013
#01512:1300000000130023
#01515:00130000
#01616:0014001414000000
#0161b:0023000013001300
#01617:0000000000000013
#01612:0000002300000000
#01712:0013000013000023
#01717:1300001300000000
#01718:0000000000130000
#01715:00000013
#0171b:2300130013000013
#04218:26130000
#04215:0000001300000000
#0421b:0000000013000013
#04212:26001313
#04216:0000000000140014
#04210:41
#04312:0013000000001400
#0431b:0000001313000000
#04316:0014001414000000
#0441b:13001313
#04415:00130000
#04418:0000001300000000
#04412:0000000013000013
#04416:0000000000140014
#0461b:0000130013000023
#04618:0000000000130000
#04615:00000013
#04612:1300000000000026
#04617:0000001300000000
#04616:24
#04715:0026000013000000
#0471a:0000000000140000
#04716:00000014
#04712:0000002300000014
#04718:0000002600000000
#0501b:13001313
#05017:0000000000130000
#05012:13240000
#05016:00001414000000000000000000002400
#0501a:00240000
#0511b:0013000013000000
#05112:0000001300000000
#05116:0024002424000000
#05218:00130000
#05212:0000130013000024
#05214:0000000000130000
#05216:00000013
#0521b:0000001300000000
#05312:0028002c2c001400
#0531a:00000014
#05316:0000000000140000
#05716:0013000013001200
#0571b:1323
#05714:0000001300000000
#05712:1300130000000012
#05718:00000012
#0571c:0000000000000012
#0581b:00001313
#05816:0000000000000013
#05818:0000131300000000
#05815:00000000001300130000001600000000
#05812:0013
#05819:0000000000130000
#05817:00000000000000000000000000000016
#06012:0013000013000013
#06016:0000131300000000
#0601b:0000000000130000
#06019:00000013
#06017:0000000000000013
#06014:00000000000000330033000013000000
#06119:13
#0611b:0013000000000000
#06116:0013000000000026
#06114:1300000000260000
#0611a:0000002400140000
#06112:0000002400000014
#01817:0013000013000000
#0181b:0000001300000000
#01812:0023002300130000
#01815:00000013
#01818:0000000000000013
#0191b:1300000013000013
#01917:00130013
#01912:0000001300000013
#01919:0000001300000000
#01916:1313
#02017:00001313
#0201b:00130013
#02012:0013000013000000
#02016:00130000
#02216:0000000013000018
#02217:00130000
#02219:0000001300000000
#02212:00130013
#0221b:0013000000000000
#02214:0000000000130000
#0231b:1323000000000000
#02316:1323000000000000
#02312:0000001813230000
#02317:0000000013230000
#02315:0000000000000024
#0231a:0000000000000024
#02412:0013000000000000
#02416:0000001300000000
#02417:0013
#02414:00130000
#02415:0000000000000016
#0241a:0013000000000000
#02418:00130000
#0281b:0013000013001300
#0281b:0013
#02812:00131300
#02816:00000013
#02818:0000000000000014
#02817:00130000
#0301b:1300001300130013
#03016:0013001300130000
#03017:00131300
#03012:00131313
#03118:00120022
#03116:0012
#03114:00000012
#0311c:00220000
#0311a:0022
#03212:1200000000220000
#03216:2200000000120000
#03218:0000001200000000
#03217:0000000000000013
#0321b:0000000000000013
#0321c:0000002200000000
#0341b:13130013
#03418:0013001300130013
#03415:0013000000000000
#03412:00130000
#03312:1313
#03317:13131300
#0331b:00130000
#06317:0000000013131313
#06312:1300001313000013
#0631b:00130000
#06316:2813000000000000
#06319:0000001300000000
#06313:0033000000000000000000000000000000000000000000000000000000000000
#06314:00330000000000000000000000000000
#06315:0000003300000000000000000000000000000000000000000000000000000000
#06418:0000001300000000
#06414:0000000000130000
#06415:0000001300000000
#06416:13
#0641b:0013000000000000
#06412:00130012
#06417:00000012
#02116:1400140014140000
#02112:0000141800001c001300000000001300
#0211b:0000000000130000
#03612:1300130000130000
#03618:0000000000000013
#0361b:0000000000130000
#03615:0013001300000000
#03719:0000001300130013
#03714:0013001300000013
#03716:23
#0371b:0023
#03712:00230000
#03717:00000023
#03814:0014001400000000
#03818:0000001400140016
#03812:0000240000000026
#03816:24000024
#0381a:0024
#07115:0000003300000000000000001300000000000000000000000000000000000000
#07112:1313
#07116:0013000000130000
#07118:00130000
#0711b:0013000013130000
#07113:0033000000000000000000000000000000000000000000000000000000000000
#07114:00330000000000000000000000000000
#07217:0000001300000000
#07212:0000001300000000
#07216:00000013
#0731b:00000013
#07312:0000130013001324
#07316:0000001300000000
#07315:0000000000000000000000000033000014000033000000000000000000000000
#07317:0000000000000013
#0731a:0000000000000000000000002400000000000000000000000000000000000033
#07313:0000000000000000000000000000003300330000000000000000000000000000
#07314:00000000000000330033000000000000
#07319:00000000000000000000000000000033
#07318:0000000000000000000000000000000000000000000000000000000000330000
#0701b:13001313
#07012:0013
#07016:0000000000130000
#07019:00001300000000000000000000330000
#07017:0000130000000013
#07015:0000000000000000000000001300000000000033000000000000000000000000
#07013:0000000000000000000000000000000000330000000000000000000000000000
#07014:00000000000000000033000000000000
#0701a:0000000000000000000000000000000000000000000000000033000000000000
#07018:0000000000000000000000000000000000000000000000000000003300000000
#07010:0041
#07415:0000001300000000
#07418:0000003300000000130000000000000000000000000000000000000000000000
#07417:1423
#0741b:13000023
#07414:0000000000000013
#07419:00330000000000000000130000001300
#0741f:0011
#0741a:0033000000000000000000000000000000000000000000000000000000000000
#08712:1c24
#08714:0014141400000000
#08718:0014141400001300
#08715:0000000000000013
#0871a:0024
#05612:13131300
#05618:00000000000013000000000000000013
#05615:00000000000000130000000000001300
#05616:13
#0561b:0013000013001300
#05617:0000000000130000
#06212:00001313
#0621a:14
#06217:0000131300000000
#06214:26000000001300130033000000330000
#06216:0000000024132613
#06213:0000000000000000000000000000000000330000000000000033000000000000
#06215:0000000000000000000000000000000000000033000000000000003300000000
#06210:41
#0291b:1300000000000000000000130000000000000000130000000000000000000000
#02916:1300000000000000000000001300000000000000001300000000000000000000
#02912:0000000013000000000000000000000013000000000000000000001300000000
#02917:0000000000130000000000000000000000000000000000000000000013000000
#02919:00130000
#02914:00000013
#05514:0014000000000013
#05516:00000013
#05518:0024001626130000
#05512:0000002616000000
#0551b:00000013
#05416:1300000013000022
#05418:0000000000000012
#05417:0000130000130000
#05412:0000230000130000
#0541b:2323
#05914:1300001300000000
#05912:0013
#05915:00000000000000160000130000001300
#05913:00000016000000000000000000000000
#05917:0013000000000000
#05919:00130000
#08012:1c00121200002200
#08014:0000000000120000
#08016:00000022
#00312:00120012
#00315:0000001200000000
#00318:0012
#0031b:0000000000120000
#0031c:0000000000000012
#00317:0000000000000012
#00412:0012001212000000
#00417:0012120000000000
#00414:00000012
#0041a:00000012
#01312:26000000130000130000000000002400
#01317:0000000013130000
#01318:00160000
#0131b:1300000000130000
#0131a:0000000000000024
#01412:00131300
#01418:0013001300000013
#01414:0000000000130000
#01416:00000013
#0141b:00001313
#01415:00000013000000000000000000000013
#0251b:0013000013000023
#02516:1300001300000000
#02515:0000000000130000
#02518:00000013
#02512:2300130013000013
#02510:41
#02616:0013000013000000
#02612:0000001300000000
#0261b:0023002300130000
#02618:00000013
#02615:0000000000000013
#02712:1300000013000013
#02716:00130013
#0271b:0000001300000013
#02714:0000001300000000
#02717:1313
#03512:00131300
#03515:0000000000130013
#03518:0000000000130013
#0351b:00000013
#04112:2616261600000000
#04118:1626162600000000
#0451b:0013000000000000
#04512:0000001313000000
#0451a:00000014
#04516:0014001414000000
#04816:13
#04817:0013000000000000
#04818:00130000
#04819:0000001300000000
#04812:0013
#04813:0000000000130000
#04814:00000013
#04815:0000000000000013
#04918:1300000000131313
#04919:0013000000000000
#0491a:00130000
#0491b:0000001300000000
#04912:001c
#04915:00000000000000000000001300130013
#06517:12
#0651c:1200001200000012
#06518:0000000000120000
#06516:0000001200120000
#06512:00001212
#06612:13
#06614:0013000000002600
#06616:00132400
#06618:0000000000000000000000001300000000000033000000000000003300000000
#0661b:00001313
#06617:0000000000130013
#0661a:0000000000000000000000000000000000330000000000000033000000000000
#06619:00000000000000000033000000330000
#0671b:1300001313000000
#06712:2800130000240000
#06717:0013000000000000
#06714:0000001300000000
#06716:0000000013240024
#0671a:0033000000000000000000000000000000000000000000000000000024000000
#06719:00330000000000000000000000000000
#06718:0000003300000000000000000000000000000000000000000000000000000000
#06819:0000000000130000
#0681c:00000012
#06817:00000012
#06816:0024000000000000
#06812:0024000000000000
#06917:12
#06912:1200001200000012
#06916:0000000000120000
#06918:0000001200120000
#0691c:00001212
#07519:0000001300000000
#07518:0000000000140014
#07514:0013001300000014
#07512:23
#07516:00232400
#0751a:00000024
#07614:0014000000000000
#07612:240000162c00002c
#07618:0000002600002600
#07616:00240000
#07818:0000000026162616
#07812:2c2c2c2c16261626
#08112:1c
#08114:0000121200002200
#08116:0000000000120000
#08118:00000022
#08212:1c
#08216:0000121200002200
#08218:0000000000120000
#0821a:00000022
#08312:1c
#08318:0000121200002200
#0831a:0000000000120000
#0831c:00000022
#08412:1c
#0841c:0000121200002200
#0841a:0000000000120000
#08418:00000022
#08512:1c
#0851a:0000121200002200
#08518:0000000000120000
#08516:00000022
#08612:1c
#08618:0000121200002200
#08616:0000000000120000
#0861a:0000000012000012
#08614:00000022
#08812:13241313
#08816:00001414000000000000130000002400
#0881b:13
#0881a:00240000
#0881f:00210000
#08912:0013000013000000
#0891b:0000001300000000
#08916:0024002424000000
#09015:00130000
#0901b:00131300
#09019:0000000000130000
#09017:00000013
#09012:0000001300000000
#0901a:0000000000000024
#09010:41
#0911a:00000014
#09112:0000002c2c001400
#09116:0028000000140000
#0941b:13131300
#09415:00000000000013000000000000000013
#09418:00000000000000130000000000001300
#09417:13
#09412:0013000013001300
#09416:0000000000130000
#09512:1300000023000012
#09517:0013000013000000
#09519:0000001300000000
#0951b:13130000
#09518:00000012
#09516:00000012
#0951c:0000000000000012
#09217:1313
#09216:0000130000130012
#0921b:0000230000130000
#09212:2323
#09218:0000000000000022
#09716:1313002300000000
#09712:0013000000001300
#0971b:0000002300000013
#09718:0000000000130000
#09715:00000000000000000000001300000000
#09812:13001313
#09814:0013000000000000
#09816:00130000
#0981b:00000000130000000000000000000013
#09818:0000001316000000
#09815:00000000000000130000000016000000
#09817:13
#09912:1300001300000013
#0991b:0013000000001300
#09916:0013001300000000
#09915:0000000000130000
#09918:00000000000000000000001300000000
#1001b:13130000
#10015:13000000001300130000000000000000
#10018:0013001326000000
#10012:00000000130000001300000016000013
#10316:0000001400140014
#1031b:1300002300000023
#10312:0013000000230000
#10317:0013000000000000
#10412:1c
#09618:0000001300001600
#0961b:00000000000000001300000000000013
#09615:00130000
#09612:0026
#10117:1313002300000000
#1011b:0013000000001300
#10112:0000002300000013
#10115:0000000000130000
#10118:00000000000000000000001300000000
#1021b:13001313
#10219:0013000000000000
#10217:00130000
#10212:00000000130000001600000000000013
#10215:0000001300001600
#10216:13
#10218:00000000000000130000000000000000
#09319:0000000000000013
#09317:00000013
#09315:0000000000130000
#09318:0014002616000000
#09312:0000001626001300
#09314:0024000000000000
#03912:2c00262c00262c00
#03918:0000000000000026
#04012:262c00262c2c2c2c
#04018:00260000
#07718:0026000026000026
#07712:00002c26002c2600
#00756:52
#00752:0022000000000000
#00758:0062
#0075c:0000000000220000
#0175b:1300000000000053
#01752:0023000000000000
#01757:53
#01656:0064
#0435b:0053
#04352:00000064
#04357:00000013
#04356:0054
#05252:33
#0525b:43
#05756:0023000000006200
#0575b:5313
#05752:3300000000000022
#05758:00000052
#0575c:0000000000000022
#0605b:0000001300000000
#06056:0000005300000000
#06052:0023
#00152:12
#00158:12
#0035c:12
#00357:12
#00952:00160000
#00958:16
#0195b:1300000013000053
#01956:6363
#02457:0053
#02456:0000005300000000
#02452:00000013
#0245b:00000013
#03056:0000000000530043
#0305b:0000000000000043
#03052:00000023
#03252:62
#03256:62
#03952:1c00001c00001c00
#07052:0053
#07056:0000000000230000
#0705b:00000063
#07057:0000000000000023
#0215b:0000000000530000
#02152:0000000000000063
#06252:00005353
#06254:36
#06256:0000000000230023
#06352:5300000063000033
#06356:0023000000000000
#06357:0000000000230063
#04456:14
#0445b:13
#0295b:5300000000000000000000230000000000000000000000000000000000000000
#02957:0000000000230000000000000000000000000000000000000000000000000000
#02959:00530000
#02952:0000000000000000000000000000000063000000000000000000002300000000
#02956:0000000000000000000000000000000000000000002300000000000000000000
#02954:00000063
#05656:53
#0565b:0023000043000000
#05652:3353
#05657:0000000000230000
#05456:5353
#0545b:5353
#05457:0000630000230000
#05452:0000630000230000
#05958:0000000000000013
#05955:0000000000000013
#00556:62626200
#00553:0000002200000000
#00558:52525200
#00552:0022000000000000
#00554:0000000000220000
#0055b:0000002200000000
#0055c:0022000000000000
#0055a:0000000000220000
#00857:0012
#01152:33
#01155:00330000
#0155b:43
#01558:00430000
#01358:00160000
#01352:16
#01857:0053000023000000
#0185b:0000005300000000
#02057:00000053
#02052:0053
#02355:0000000000000044
#0235a:0000000000000044
#0255b:0023000000000000
#02552:1300000000000063
#02556:63
#02656:0063000023000000
#02652:0000006300000000
#02752:1300000013000063
#02757:5353
#03352:3333
#03357:53335300
#0335b:00530000
#03455:0000000000000033
#03458:0000000000000043
#03658:0000004300000000
#03655:0000003300000000
#04052:001c00001c001c00
#04152:0000001600000000
#04158:0000001600000000
#04252:36
#04258:46
#04552:0063
#0455a:00000054
#04556:00006413
#04652:13
#04656:14
#05052:00340000
#0505a:00440000
#05352:00003c34
#0535a:00000044
#06154:0000000000360000
#06156:0000000000000046
#06456:53
#0645b:0043000000000000
#06455:0000001300000000
#06458:0000001300000000
#06452:00000052
#06457:00000052
#06557:52
#0655c:52
#06556:0000005200520000
#06552:00002222
#0665b:00006363
#06657:0000000000230023
#0675b:63
#06757:0023000000000000
#06752:0000000000340000
#0675a:0000000000000044
#06852:0000003400000000
#06856:0000003400000000
#0685c:00000062
#06857:00000062
#06957:62
#06952:62
#06958:0000006200620000
#0695c:00002222
#07257:0000001300000000
#07252:0000001300000000
#07352:0000000023000064
#07355:0024
#07356:0000005300000000
#0735a:0000005400000000
#07357:0000000000000063
#07457:24
#0745b:23
#07858:0000000000000016
#07852:1c001c0000000016
#07652:000000001c00001c
#07752:00001c00001c0000
#0915a:00000044
#09152:00004c34
#09552:6300000013000022
#09557:0023000000000000
#0955b:43
#09558:00000052
#09556:00000062
#0955c:0000000000000022
#09457:63
#09452:0023000033000000
#0945b:4363
#09456:0000000000230000
#09257:6363
#09256:0000530000230000
#09252:6363
#0925b:0000530000230000
#09052:33
#0905b:43
#09858:0046
#09855:00000046
#10452:5c
#09658:00000016
#09652:0016
#10058:0016
#10052:00000016
#08852:00340000
#0885a:00440000
#10252:0036
#10255:00000036
#10352:0000000000330000
#1035b:0000004300000043
#07152:53
#07156:0023000000000000
#04952:001c
#002370:0012
#002320:00000032
#003370:22
#002371:00000012
#0033c1:22
#004371:0000000012220000
#005361:12323222
#005321:0032000000000000
#005331:0000003200000000
#005341:0000000000320000
#005380:12323222
#0053c0:0032000000000000
#0053b0:0000003200000000
#0053a0:0000000000320000
#007360:12220000
#007320:0052000000000000
#007380:00001222
#0073c0:0000000000520000
#016360:0014
#016320:00000024
#017370:13230000
#017320:0053000000000000
#0173b0:0000000000000013
#018370:23
#018370:0013000000000000
#0183b0:00230000
#0183b0:0000001300230000
#018370:0053
#019360:13
#019320:00230000
#019360:0013
#019320:00000023
#0193b0:0000000000000013
#020360:0023000000000000
#020320:0013
#020370:00000033
#021320:23
#0213b0:0000000000130000
#021360:0000000000000023
#021321:0000000000000013
#022371:0023000000000000
#0223b1:0013
#022391:0000000000330000
#022371:00000023
#024361:0000001300000000
#024321:00000023
#024370:0013
#0243b0:00000023
#025360:13230000
#0253b0:0053000000000000
#025320:0000000000000013
#026360:23
#026360:0013000000000000
#026320:00230000
#026320:0000001300230000
#026360:0053
#027370:13
#0273b0:00230000
#027370:0013
#0273b0:00000023
#027320:0000000000000013
#028370:0023000000000000
#0293b0:1300000000000000000000530000000000000000000000000000000000000000
#029370:0000000000530000000000000000000023000000000000000000000000000000
#029390:00530000
#029321:0000000000000000000000000000000013000000000000000000005300000000
#029361:0000000000000000000000000000000000000000005300000000000000000000
#029341:00000053
#030361:23
#030361:0000000000130023
#030321:00000053
#032361:12
#0323c1:00220000
#032320:12
#032380:00220000
#033370:13000000000000533300000000000000
#0333b0:00000053330000000000005323000000
#033371:00000013
#033321:0000000000000053
#034321:23
#034351:0000001300330023
#034321:00000033
#035361:00130000
#0353b1:0000005323000000
#0363b1:13330000
#036381:0033002300000000
#0373b1:13
#037371:00230000
#037361:0013
#037321:00000023
#0383a1:14
#038361:00240000
#038361:0014
#038321:00000024
#043361:0000000014000054
#043321:0000000000543400
#044361:24
#0433b0:0013
#043370:0000000000532300
#045361:0000000014000054
#0453a1:0000000000543400
#046361:24
#045320:0013
#045360:0000000000532300
#046361:00132300
#046321:0000003300000000
#048321:1400002400000000
#048391:0000000015000025
#049321:1600002600000000
#050361:00001333
#050321:0000000000330023
#051321:00000013
#0523b1:23
#0513b0:00000013
#052320:23
#052370:0013
#052390:0000000000330000
#0523b0:00000023
#054360:13
#054320:0023000000000000
#0543b1:13
#054371:0023000000000000
#054371:00130000
#0543b1:0000002300000000
#054320:00130000
#054360:0000002300000000
#054360:00001323
#054320:0000000000330000
#0543b1:00001323
#054371:0000000000330000
#056361:13230000
#0563b1:0033000000000000
#056321:00001323
#056371:0000000000330000
#0573b1:13332300
#057361:0033000000000000
#057361:00000012
#057321:0000000000000052
#058361:22
#057380:00000012
#0573c0:0000000000000052
#058380:22
#0593b0:0013
#059380:0000000000330023
#060370:0013000000000000
#0603b0:0000332300000000
#060361:0000001300230000
#060341:00000000000000330033000000000000
#060321:0033
#062321:00001333
#062331:0000000000000000000000000000000000330000000000000033000000000000
#062341:00000000000000000033000000330000
#062351:0000000000000000000000000000000000000033000000000000003300000000
#062361:0000000000330033
#063321:33230000
#063331:0033000000000000000000000000000000000000000000000000000000000000
#063341:00330000000000000000000000000000
#063351:0000003300000000000000000000000000000000000000000000000000000000
#063361:0033000000000000
#063321:00001323
#063371:0000000000530000
#063371:0000000000000013
#0643b1:23
#064360:13
#064320:0023000000000000
#064320:00000012
#065370:32
#065320:00220000
#064371:00000012
#0653c1:32
#065371:00220000
#065361:0000001200320022
#065321:00005252
#066371:13
#0663b1:0000002300000000
#0663b1:00001333
#0663a1:0000000000000000000000000000000000330000000000000033000000000000
#066391:00000000000000000033000000330000
#066381:0000000000000000000000000000000000000033000000000000003300000000
#066371:0000000000330033
#0673b1:33230000
#0673a1:0033000000000000000000000000000000000000000000000000000000000000
#067391:00330000000000000000000000000000
#067381:0000003300000000000000000000000000000000000000000000000000000000
#067371:0033000000000000
#068361:0014002400000000
#0683a1:00000054000000000000000000000000
#068320:0014002400000000
#068360:00000054000000000000000000000000
#0683c0:00000012
#069370:32
#0693c0:00220000
#068371:00000012
#069321:32
#069371:00220000
#069381:0000001200320022
#0693c1:00005252
#070361:13
#070321:0000002300000000
#070321:00001323
#070331:0000000000000000000000000000000000330000000000000000000000000000
#070341:00000000000000000033000000000000
#070351:0000000000000000000000000000000000000033000000000000000000000000
#070361:0000000000330000
#0703b0:00000013
#0703a0:0000000000000000000000000000000000000000000000000033000000000000
#070390:00000000000000000000000000330000
#070380:0000000000000000000000000000000000000000000000000000003300000000
#070370:0000000000000033
#0713b0:23
#071321:13230000
#071331:0033000000000000000000000000000000000000000000000000000000000000
#071341:00330000000000000000000000000000
#071351:0000003300000000000000000000000000000000000000000000000000000000
#071361:0033000000000000
#071361:0000000000000013
#072361:33
#0723b1:0033230000000000
#071320:0000000000000013
#072320:23
#072370:0013230000000000
#072320:00000013
#073370:23
#0733b1:13
#073361:00230000
#0733a1:0000001400240000
#073351:0054
#073360:0000001300230000
#073350:0000000000000000000000000033000000000033000000000000000000000000
#073340:00000000000000330033000000000000
#073330:0000000000000000000000000000003300330000000000000000000000000000
#073320:0033
#073320:0000000000000014
#074370:54
#074320:0024000000000000
#073371:0000000000000013
#073381:0000000000000000000000000000000000000000000000000000000000330000
#073391:00000000000000000000000000000033
#0733a1:0000000000000000000000000000000000000000000000000000000000000033
#0743b1:33
#0743a1:0033000000000000000000000000000000000000000000000000000000000000
#074391:00330000000000000000000000000000
#074381:0000003300000000000000000000000000000000000000000000000000000000
#074371:0023000000000000
#074321:0013
#074361:00000023
#075371:13
#0753b1:00230000
#075321:0014
#075361:00000024
#076361:14
#0763a1:00240000
#088371:00001333
#0883b1:0000000000330023
#0893b1:00000013
#090321:23
#089320:00000013
#0903b0:23
#090360:0013
#090340:0000000000330000
#090320:00000023
#092370:13
#0923b0:0023000000000000
#092321:13
#092361:0023000000000000
#092361:00130000
#092321:0000002300000000
#0923b0:00130000
#092370:0000002300000000
#092370:00001323
#0923b0:0000000000330000
#092321:00001323
#092361:0000000000330000
#094371:13230000
#094321:0033000000000000
#0943b1:00001323
#094361:0000000000330000
#095321:13332300
#095371:0033000000000000
#095381:00000012
#0953c1:0000000000000052
#096381:22
#095360:00000012
#095320:0000000000000052
#096360:22
#096320:00000013
#096360:00000000000000000000000000000023
#1003b0:00000013
#100370:00000000000000000000000000000023
#104320:1c230000
