This file was generated by Ched 2.7.0.0.
#TITLE ""
#ARTIST ""
#DESIGNER ""
#DIFFICULTY 0
#PLAYLEVEL
#SONGID ""
#WAVE ""
#WAVEOFFSET 0
#JACKET ""
#REQUEST "ticks_per_beat 480"
#00002: 4
#BPM01: 190
#00008: 01
#TIL00: ""
#HISPEED 00
#MEASUREHS 00
#0011a:14
#00114:0014
#0021a:14
#00214:0014
#00318:14
#00312:0014
#00418:14
#00412:0014
#0051a:14
#00514:0014
#00618:14
#00612:0014
#0071a:14
#00714:0014
#00818:14
#00812:0024
#0091a:14
#00914:0014
#00910:41
#01112:14
#01118:0014
#0131a:14
#01314:0014
#01512:14
#01518:0014
#01712:0014
#0171a:24
#01818:14
#01814:00140000
#0181a:0014
#01912:14
#0191a:0014
#02014:14
#02018:00140000
#02012:0014
#02514:0014
#02518:24
#02510:41
#0261a:14
#02612:00140000
#02618:0014
#02714:14
#02718:0014
#02812:14
#0281a:00140000
#02814:0014
#0371a:1414
#03814:1414
#03918:1414
#04012:1414
#04214:00140000
#04218:0014
#04212:00000014
#0421a:24
#04210:41
#04318:14
#04314:00140000
#0431a:0014
#04412:14
#04418:00140000
#04414:0014
#0441a:00000014
#04514:14
#04518:00140000
#04512:0014
#04714:00000014
#0471a:14
#04712:00140000
#04718:0014
#0461a:14
#04612:00140000
#04618:0014
#04614:00000014
#0491a:14
#0481a:14
#04818:0014
#05018:00140000
#05014:0014
#0501a:00000014
#05012:24
#05114:14
#05118:00140000
#05112:0014
#0521a:14
#05214:00140000
#05218:0014
#05212:00000014
#05518:00000014
#05512:14
#0551a:00140000
#05514:0014
#05412:14
#0541a:00140000
#05414:0014
#05418:00000014
#05712:14
#05612:14
#05614:0014
#06318:00140014
#06314:0014
#06312:24
#06414:14
#0641a:00140000
#06412:0014
#0651a:14
#06514:0014
#06518:00000014
#06714:00140014
#06718:0014
#0671a:24
#06818:14
#06812:00140000
#0681a:0014
#06912:14
#06918:0014
#06914:00000014
#07018:14
#07012:0024
#0701a:00000024
#07010:0041
#06614:14
#0661a:0024
#06612:00000024
#07118:00140000
#07112:0014
#0711a:00000014
#07114:24
#07214:14
#07218:00140000
#07412:0014
#0741f:0011
#07518:14
#07514:0014
#0761a:14
#0801a:0014
#08012:24
#08114:1414
#08118:00140000
#08212:0014
#0821a:24
#08318:1414
#08314:00140000
#0841a:0014
#08412:24
#08514:1414
#08518:00140000
#08712:14
#0861a:14
#08814:00140000
#08818:0014
#08812:00000014
#0881a:24
#0881f:00210000
#08918:14
#08914:00140000
#0891a:0014
#09012:14
#09018:00140000
#09014:0014
#0901a:00000014
#09010:41
#09314:00000014
#0931a:14
#09312:00140000
#09318:0014
#0921a:14
#09212:00140000
#09218:0014
#09214:00000014
#0951a:14
#0941a:14
#09418:0014
#1001a:0014
#10112:14
#10118:0014
#10114:00000014
#10212:0014
#1031a:14
#10314:0014
#10318:00000014
#05812:00001434
#0581a:24
#05914:00140000
#05913:3434
#05912:00000034
#0601a:00001434
#06118:00140000
#06119:3434
#0611a:00000034
#09712:14
#09718:0014
#09714:00000014
#09812:0014
#0991a:14
#09914:0014
#09918:00000014
#0961a:0014
#09612:24
#04118:26
#04112:00260000
#05318:24
#05314:00240000
#0531a:0024
#06212:0024
#0621a:00000024
#06210:0041
#09114:24
#09118:00240000
#09112:0024
#0485a:54
#04858:0054
#0495a:54
#04958:0014
#0535a:0014
#04552:0014
#05752:64
#05754:0014
#05652:64
#05654:0064
#06654:14
#07058:14
#08752:64
#0865a:64
#0955a:54
#09558:0014
#0945a:54
#09458:0054
#0895a:0014
#05954:00240000
#05852:0064
#0605a:0054
#06158:00240000
#0625a:14
#0435a:0014
#05152:0014
#09152:0014
#07858:0000000000000014
#010380:14
#010390:00340000
#0103a0:0024
#012340:14
#012330:00340000
#012320:0024
#0143a0:14
#014390:00340000
#014380:0024
#016320:14
#016330:00340000
#016340:0024
#0213a0:14
#021380:0034
#0223a0:34
#022380:0024
#023320:14
#023340:0034
#024320:34
#024340:0024
#0293a0:14
#029380:0034
#030380:34
#0303a0:0024
#031320:14
#031340:0034
#032340:34
#032320:0024
#0333a0:14
#033380:0024
#034340:14
#034320:0024
#035380:14
#0353a0:0024
#036320:14
#036340:0024
#0483a0:14
#048380:0034
#0493a0:34
#049380:0024
#056320:14
#056340:0034
#057320:34
#057340:0024
#058320:00001434
#059330:3434
#059340:00340000
#059320:00000034
#060320:24
#0603a0:00001434
#061390:3434
#061380:00340000
#0613a0:00000034
#0623a0:24
#072320:0014
#073340:24
#0733a0:0014
#074380:24
#076340:0014
#076330:0000000000000034
#077320:00340000
#077330:0000000000340000
#078340:34240000
#078380:0000000014343424
#0863a0:14
#086380:0024
#087320:14
#087340:0024
#0943a0:14
#094380:0034
#0953a0:34
#095380:0024
#098380:14240000
#100340:14240000
#102380:14
#1023a0:00240000
#104340:14
#104320:00240000
