This file was generated by Ched 2.7.0.0.
#TITLE ""
#ARTIST ""
#DESIGNER ""
#DIFFICULTY 0
#PLAYLEVEL
#SONGID ""
#WAVE ""
#WAVEOFFSET 0
#JACKET ""
#REQUEST "ticks_per_beat 480"
#00002: 4
#BPM01: 137
#00008: 01
#TIL00: ""
#VOLUME: ""
#HISPEED 00
#MEASUREHS 00
#00518:14
#00614:14
#00718:14
#00814:14
#0091a:14
#00910:41
#0101a:14
#01112:14
#01212:14
#0011a:14
#00212:14
#0031a:14
#00412:14
#01318:14
#01514:14
#01418:14
#01614:14
#02518:2616
#02510:41
#02612:1616
#02718:16
#02712:0016
#02912:2616
#03018:1616
#03112:16
#03118:0016
#03614:14
#03718:14
#03812:14
#04818:14
#0481f:11
#04918:14
#05014:14
#05114:14
#0521a:14
#05312:14
#05812:0016
#05818:26
#0581f:21
#05918:16
#05912:0016
#05910:41
#06012:0016
#06018:16
#06218:0016
#06212:26
#06312:16
#06318:0016
#06418:0016
#06412:16
#06912:14
#0701a:14
#07114:14
#07110:41
#03510:41
#01710:41
#0173a0:14
#0183a0:24
#019320:14
#020320:24
#021380:14
#022380:24
#023340:14
#024340:3424
#028380:1626
#032320:1626
#033380:16
#034380:36
#035380:26
#0393a0:14
#0403a0:24
#041320:14
#042320:24
#043380:14
#044380:24
#045340:14
#046340:34
#047340:24
#054380:14
#055380:24
#056340:14
#057340:24
#061380:1626
#065320:1626
#066380:16
#067380:36
#068380:26
#0723a0:14
#0733a0:34
#0743a0:34
#0753a0:24
#076330:14
#078330:34
#079320:0000000000000026
