This file was generated by Ched 2.7.0.0.
#TITLE ""
#ARTIST ""
#DESIGNER ""
#DIFFICULTY 0
#PLAYLEVEL
#SONGID ""
#WAVE ""
#WAVEOFFSET 0
#JACKET ""
#REQUEST "ticks_per_beat 480"
#00002: 4
#BPM01: 137
#00008: 01
#TIL00: ""
#VOLUME: ""
#HISPEED 00
#MEASUREHS 00
#0481f:11
#03818:000000130000000000130000000000000000140000001400
#03815:00000013001300000000000000000000
#03812:230000000014
#03814:000000241400
#0381a:000000000000001400000000
#0381b:23
#07412:13131313
#07417:0000001300000000
#0741b:23
#0731b:13131313
#07316:0000001300000000
#07312:23
#07618:00001300000023001300130000000013
#07615:00000023001300000013000000001300
#0761b:23000013
#07612:13000023
#0311b:13
#03116:13
#03115:0000130000000013
#03118:00000013
#03019:0000000000000013
#03014:0000130000000013
#03017:00000013
#03012:00000013
#03015:0013
#03013:13
#02614:0000000000000013
#02619:0000130000000013
#02616:00000013
#0261b:00000013
#02618:0013
#0261a:13
#02717:13
#02718:0000000000130013
#02715:00000013
#0271b:00131300
#02712:0013
#02714:0000001300000000
#05919:0000230000000013
#05917:00000013
#05914:0000000000000013
#05912:00000013
#0591b:0023
#0591a:23
#05910:41
#07715:0023131300000000
#07718:00130000001300000000000000000000
#07714:0000000000130000
#07712:00000013
#07716:0013
#07719:0000000000130000
#07717:00000013
#0771b:0013
#07512:1325
#07514:00130000
#07518:0000001300000023
#0751a:0013000000000000
#07515:00000000000023000000002300000000
#07513:0023000000000000
#07519:00232500
#0751b:23
#05618:0000000000000016
#0651b:13231323
#06512:23132313
#06517:0000002300000023
#06516:0023000000230000
#06412:1300000000130000
#06415:0000130013000013
#0641b:00130000
#06418:0000001300001300
#06417:13
#06316:00000013
#0631b:00000013
#06314:0000230000000013
#06319:0000000000000013
#06312:0023
#06313:23
#06017:00000013
#06012:0000000023001313
#0601b:2300000013130000
#06015:0000001300000000
#06018:00130000
#00812:0000000012000013
#0081c:12
#00814:0000000000131300
#00819:0000000000131300
#06912:00000000000000000013000000001300
#06915:0000001300000000
#06917:13
#0691b:00000013000000000000000000000000
#07016:00000000000000130000000000000000
#0681b:0013
#06818:0000000000130000
#06812:00000013
#06815:0000000000000013
#06716:0000001300000000
#06712:23
#06617:0013
#06612:2300000000000023
#0661b:23
#07118:0000001300001300
#07115:0013000000000013
#07112:00231300
#0711b:23132300
#07110:41
#07217:0000001300000000
#07212:23131313
#0721b:23
#06212:23130023
#06215:0013001300000000
#0621b:1323
#06218:0013001300000000
#05812:1323
#05815:0013001300000000
#0581b:23130023
#05818:0013001300000000
#0581f:21
#0341b:13
#03417:0000001300000000
#03412:0000001300000000
#03314:00000000000000000000000000000013
#03312:13
#03316:0013
#0331b:2300000000000013
#02915:00130000
#02912:2313001300001300
#02918:13
#0291b:0013001313000000
#02515:13
#02512:0013001313000000
#0251b:2313001300001300
#02518:00130000
#02510:41
#02312:0000130000000013
#0231b:0000000000130013
#02314:00000013
#02319:00000013
#02316:13
#02317:0000001300000000
#02415:00000013000000000000000000000000
#02418:00000013000000000000000000000000
#01815:00000000000000130000000000001300
#0181b:0013000000001300
#01818:1300001300000000
#01812:00130000
#01617:00130000
#0161b:0013
#01616:0013
#01612:0000000000000013
#01712:0000000013000013
#01715:1300001300001300
#01718:0013000000130000
#0171b:23130000
#01710:41
#01415:0013000013000013
#01412:13
#01418:00000000000013000000000000000013
#0141b:00130000
#01318:0013000000130013
#0131b:1313
#01315:00130013
#01312:1300001300000000
#0111b:0013000000130000
#01118:1300001300002300
#01112:0000130000000013
#01115:00000000000000001300001300000000
#04519:0000000000121200
#04518:00120000
#04413:0012
#0441b:0000001200000000
#04414:00120000
#04415:12
#0441a:0012000000000000
#04316:0000001200001200
#04319:0000120000000012
#04318:0012
#04315:0012000000000000
#0431a:12
#04214:0000000000000012
#03919:0000000000000012
#0391a:0000000000120000
#0391b:0000001200000000
#03914:0012
#03915:00000012
#03913:00120000
#0391c:0012000000000000
#03912:12
#06118:0000000000000013
#06115:00000013
#06114:0000001300000000
#06119:0013000000000000
#06116:2323
#06117:00230000
#0611b:2323
#06112:00230000
#05715:00000023002300000013001300000000
#05718:0023002313130000
#05712:2600000000000013
#0571b:00000013
#0551a:00120012
#05518:0012000000000000
#05516:12
#05517:0000001200120012
#05514:0012
#05414:0000000000000012
#05418:00000012
#05412:13
#0541b:13
#03618:0000130013000013
#0361b:1300000000130000
#03615:1300001300001300
#03612:0013000013000000
#03512:2313
#03515:0013001300001300
#03518:0000130000130013
#0351b:2313
#03510:41
#05318:0000000000000013
#05315:00000013
#05314:0000001300000000
#05316:13140000
#05319:0013000000000000
#0531b:13
#05317:0023
#05312:0023
#05214:0013000000000013
#05212:13000013
#05216:00141300
#05219:0000001300000000
#05217:13000013
#0521b:0013
#03712:1313001300000000
#03718:00000013000000000000130000001300
#03715:00000000130000001300000000130000
#0371b:13000013
#02815:0013000000000013
#02818:0000001300001300
#0281b:13231300
#02812:23132300
#0221b:0013000000000013
#02212:0000001300000000
#02215:13231300
#02218:23132300
#02112:2300000000000013
#02118:0013000013000000
#0211b:0000001300000000
#02018:0023000000000013
#02015:0000002300001300
#0201b:13230000
#02012:23132300
#0191b:1313
#01912:1313
#01918:0013001300002300
#01915:0000130000000023
#01518:0013001300000013
#0151b:00130013
#01512:1300000000130000
#01515:0013
#01218:0000002300000013
#01215:13230013
#01212:0013000000000000
#0121b:0023
#01015:0000130000000013
#0101b:00000013
#01018:0013001300000000
#01012:13
#0091b:2313
#00915:00131300
#00912:2300001300000000
#00918:0013000000000000
#00910:41
#00716:00000012
#00714:1212
#0071a:1212
#00718:0000001200000000
#00616:1200000000000012
#00618:0012
#00516:00000012
#00512:0012
#00518:00120000
#0051c:12
#07919:2515251500000000
#07912:1525152516261626
#07918:0000000026162616
#0781a:0000000014141414
#07812:2313131314142414
#0781b:1313132300000000
#0041a:12000012
#0041c:00120000
#00416:00120000
#00414:12
#00118:0012
#00116:12000012
#00112:0012
#0011a:00120000
#0011c:12
#00316:0012
#00318:12000012
#0031c:0012
#00314:00120000
#00312:12
#00212:0012
#00218:0012
#00214:00120000
#0021c:12
#00216:12
#0021a:00120000
#03215:0000001300000013
#0321b:23132313
#03218:0013000000130000
#03212:13231323
#0245b:0043
#02452:0033
#02455:00000023000000000000000000000000
#02458:00000023000000000000000000000000
#05752:16
#07252:13
#0725b:63
#07257:0000005300000000
#0745b:63
#07457:0000005300000000
#07352:53
#07356:0000006300000000
#06752:53
#06756:0000002300000000
#0665b:63
#06657:0023
#06156:1313
#06157:00130000
#0715b:1313
#07152:00130000
#06252:13530000
#06255:0000002300000000
#0625b:63
#06258:0023000000000000
#0585b:13630000
#05852:53
#05855:0023000000000000
#05858:0000002300000000
#02952:1300002300000000
#02955:00630000
#02958:53
#0295b:0023000000000000
#02152:13
#07952:0000000000000016
#07958:0000000000000016
#0255b:1300002300000000
#02555:63
#02552:0023000000000000
#02558:00530000
#06952:00000000000000000023000000005300
#06955:0000006300000000
#06957:53
#0695b:00000023000000000000000000000000
#07056:00000000000000230000000000000000
#0685b:0063
#06858:0000000000230000
#06852:00000053
#06855:0000000000000023
#06455:0063
#06452:0000000000230000
#0645b:00630000
#06458:0000002300000000
#0345b:63
#03457:0000002300000000
#03452:0000002300000000
#03354:00000000000000000000000000000063
#03352:53
#03356:0023
#02352:0000000000000053
#0235b:0000000000000063
#01855:00000000000000630000000000000000
#0185b:0023000000000000
#01858:53
#01657:00530000
#0165b:0063
#01656:0063
#01752:0000000000000023
#01755:00000063
#01455:0023000000000000
#01452:53
#01358:0000000000230000
#0135b:0063
#0115b:0023000000000000
#01158:53
#03655:00000013
#03658:00130000
#03555:00000013
#03558:00130000
#02255:1313
#02258:00130000
#0285b:1313
#02852:00130000
#005360:12
#005320:00220000
#005380:0012
#0053c0:00000022
#0063c0:12
#006380:00220000
#006361:00120000
#006321:0022
#008321:12
#008361:00220000
#008380:00120000
#0083c0:0022
#0093b0:00000013
#010380:23
#010350:0013
#010320:00000023
#011380:13230000
#0113b0:0053000000000000
#011380:00000013
#0123b0:00230000
#0133b0:00001323
#013380:0000000000530000
#014320:13230000
#014350:0053000000000000
#016350:13
#016320:00230000
#016371:00130023
#0163b1:0033
#016360:0013
#016320:00000023
#017350:00000013
#017320:0000000000000053
#018350:23
#018381:13230000
#0183b1:0053000000000000
#018351:00000000000000130000000000000000
#018321:00000023
#0203b1:0013
#020381:00000023
#021321:00000013000000000000000000000000
#021351:0000002300000000
#021351:00000000000000000013002300000000
#021380:00000000000000000000001300000000
#0213b0:0000000000000023
#0233b0:13
#023370:00230000
#023320:0000001300000000
#023360:0000000000230000
#0233b0:0000000000000013
#024380:00000053000000000000000000000000
#0243b0:0023
#023321:0000000000000013
#024351:00000053000000000000000000000000
#024321:0023
#025351:13230000
#025321:0053000000000000
#025380:00132300
#0253b0:0000005300000000
#025350:00000013
#025360:0000000000000033
#026340:3300003300000000
#026350:0033000000000000
#026330:00330000
#026320:0023
#027320:13
#027360:00230000
#029380:13230000
#0293b0:0053000000000000
#029351:00132300
#029321:0000005300000000
#029381:00000013
#029371:0000000000000033
#030391:3300003300000000
#030381:0033000000000000
#0303a1:00330000
#0303b1:0023
#0313b1:00130000
#031381:0023
#031350:0013
#031320:00000023
#033320:13
#033360:0053
#033340:00000000000000000000000000000053
#034320:0000005300000000
#034360:00000023
#0343b1:13000023
#034371:0000005300000000
#040361:12220000
#0403a0:00120022
#040341:00001222
#041361:12000022
#041380:0000001200002200
#044380:00000012
#045380:22
#045361:12220000
#045361:0000001200000000
#047321:22
#045390:0000000000000012
#0473c0:22
#0483b0:1232
#0483c0:00320032
#0493b0:3232
#0493c0:00320022
#048321:12220000
#048331:00001222
#049341:12220000
#049351:00001222
#050331:1232
#050321:00320032
#051331:3232
#051321:00320022
#0503c0:12220000
#0503b0:00001222
#0513a0:12220000
#051390:00001222
#0543c0:00120000
#054380:0022
#054321:0012
#054361:00000022
#056341:12
#056321:0000000000000026
#058321:13230000
#058351:0053000000000000
#0583b0:00132300
#058380:0000005300000000
#0583b0:00000013
#058390:0000000000000023
#058361:0000000000000013
#059341:23
#0593a0:13
#059380:0023000000000000
#059351:0013000000000000
#059331:00230000
#059390:00130000
#059370:0000002300000000
#059341:0000001300000000
#059321:0023
#060361:13
#060321:00230000
#0623b1:13230000
#062381:0053000000000000
#062320:00132300
#062350:0000005300000000
#062320:00000013
#062340:0000000000000023
#062371:0000000000000013
#063391:23
#063330:13
#063350:0023000000000000
#063381:0013000000000000
#0633a1:00230000
#063340:00130000
#063360:0000002300000000
#063391:0000001300000000
#0633b1:0023
#0643b1:00132300
#064381:0000005300000000
#064350:00001323
#064320:0000000000530000
#0663b0:13
#066370:0053
#0673b0:23
#067321:13000023
#067361:0000005300000000
#067370:0000000000001323
#067321:0000000000000013
#068321:23
#0683b0:1323000000000000
#068351:0013230000000000
#068380:0000132300000000
#068321:0000001323000000
#0683b0:00001323
#068380:0000000000530000
#068321:00000013
#068351:0000000000000053
#069321:23
#069370:13
#0693b0:00000053000000000000000000000000
#069380:0000002300000000
#069351:0000001300000000
#069321:00000000000000000053000000000000
#069361:00000023
#0693b0:0000000000001323
#069321:0000000000000013
#070361:00000000000000530000000000000000
#071321:23
#0723b1:13000023
#072371:0000003300000000
#073321:13000023
#073361:0000003300000000
#0743b1:13000023
#074371:0000003300000000
