This file was generated by Ched 2.7.0.0.
#TITLE ""
#ARTIST ""
#DESIGNER ""
#DIFFICULTY 0
#PLAYLEVEL
#SONGID ""
#WAVE ""
#WAVEOFFSET 0
#JACKET ""
#REQUEST "ticks_per_beat 480"
#00002: 4
#BPM01: 137
#00008: 01
#TIL00: ""
#VOLUME: ""
#HISPEED 00
#MEASUREHS 00
#0251b:0000001300001300
#02515:2300130000000013
#02518:0013000000000000
#02512:0013
#02510:41
#0261a:13
#02619:00130000
#02618:0000000013000013
#02615:00000013
#02614:0013000000000000
#02613:0000001300000000
#02717:0000001300000000
#02712:0013
#02718:0000000000130000
#02713:00000013
#02719:0000000000000013
#0281a:0013000000000000
#0281b:0000001300001300
#02812:0000000000000013
#02814:23
#02815:00230000
#02816:0023
#03815:00130000
#03814:00000014
#03818:2324
#03718:0013000000130000
#0371b:1313
#03715:00130013
#03712:0000001300000013
#05212:13000013
#0521b:00130000
#05218:0013
#05215:0000001300000000
#07112:00000013
#07115:0013000000000000
#07113:0000001300000000
#07119:00230000
#07117:0023
#0711b:23
#07110:41
#00818:0000000000000013
#00815:32
#00915:00130000
#00918:0000001300001300
#00912:2313
#0091b:0013000000000000
#00910:41
#01012:0013000000000013
#01018:00130000
#01015:0000001300000000
#0101b:0013
#01115:0000000000131300
#0111b:0000000013000013
#01112:0000001300000000
#01118:13000000000000000000001300000000
#01212:13
#01218:0013000000001300
#01215:0000230000000013
#01213:0000003300000000
#01415:0000001300000013
#01418:00000000000000001300000000000013
#0141b:13
#01515:1313
#01518:0013000000130013
#01512:00130013
#0151b:0000001300000000
#01712:2313
#01718:0013000000130000
#01715:00130013
#0171b:0000001300000000
#01710:41
#01815:0000000000000013
#01812:13
#0181a:00000000000000330000000000000000
#01918:13130023
#0191b:0013000000000000
#01915:0000001300000023
#01912:0013
#02212:0013000000000000
#02215:0000001300000013
#02218:2323
#0221b:00230000
#02318:00000013
#02315:0000000000000013
#0231b:13
#02312:0000001300000000
#03118:0000000000000013
#0311b:13
#03112:00130000
#03115:0013
#0351b:23130000
#03515:0013001300000000
#03512:0000000000130013
#03518:00001313
#03510:41
#0531b:13000013
#05312:00130000
#05318:0000001300000000
#05315:0023
#0541b:1300000000000013
#05412:13
#05418:0013
#05415:00130013
#05718:23000013
#05715:0000000000000013
#0591b:0013000000001300
#05915:2300001300000013
#05918:00230000
#05912:0023
#05910:41
#06012:0000001300000013
#06015:0000000000130000
#06018:00000013
#0601b:0023
#06318:2300001300000013
#06312:0013000000001300
#06315:00230000
#0631b:0023
#06412:1300000000000013
#06114:0013000000000000
#06116:0000001300000000
#06115:00000013
#06118:0000000000000013
#06117:23
#06119:00230000
#0611b:0023
#07417:0000001300000000
#0741b:23000000000000000000001300000000
#01312:0000001300000000
#01318:00131300
#01315:0013000000000013
#0131b:13
#0161b:0000000000000013
#01612:13
#01615:00130000
#02115:0013000000000013
#0211b:23
#05815:0000001300002300
#05812:0013000000000000
#05818:0000230000000013
#0581b:2323
#0581f:21
#02912:0000001300001300
#02918:2300130000000013
#02915:0013000000000000
#0291b:0013
#03013:13
#03014:00130000
#03015:0000000013000013
#03018:00000013
#03019:0013000000000000
#0301a:0000001300000000
#03312:13
#0331b:13
#03615:0013000000130000
#0361b:1313
#03618:00130013
#03612:0000001300000013
#04416:00000012
#04516:0000000000120000
#04518:12000012
#0481a:1212
#04816:00120000
#0481f:11
#04914:1212
#04918:00120000
#0501a:1212
#05014:00120012
#05118:1212
#05116:00120000
#05512:1313
#05515:00130013
#0551b:0000001300000013
#05518:0013000000130000
#05618:0000000000000013
#05612:13
#03418:13
#03415:13
#06218:0000001300002300
#0621b:0013000000000000
#06215:0000230000000013
#06212:2323
#06615:00000000000000130000000000000000
#06618:00000000000000130000000000000000
#06612:23
#0661b:23
#06712:13
#0671b:13
#06818:00131300
#06815:0000001300001300
#06812:23
#0681b:23
#07017:00000000000000130000000000000000
#0691b:0000000000000013
#06912:13
#06916:0000001300000000
#07217:0000001300000000
#0721b:23
#07316:0000001300000000
#07312:23
#02012:0023000000000013
#02018:2300002300000000
#02015:00230000
#0201b:0023
#0761a:14
#07616:0000000000000014
#0321a:0000001300000000
#0321b:0013000000000000
#03219:0000000000130000
#03218:0000000000000013
#03213:00230000
#03214:0023
#03215:00000023
#03212:23
#02417:00000012
#0651b:23
#06512:0023
#06518:0000230000230023
#06515:0023002300002300
#0781b:2300003300003300
#07812:2300003300003300
#07518:0024
#07515:0000002300000000
#0751a:00000000000000000000003400000000
#00419:32
#00318:0032
#00716:0032
#0791b:3300330033333300
#07912:3300330033333300
#02355:0000000000000063
#0235b:63
#02352:0000005300000000
#07457:0000005300000000
#0745b:63000000000000000000002300000000
#0715b:13
#07159:00130000
#07157:0013
#02452:0013
#0585b:13
#02555:13
#02958:13
#03352:53
#0335b:63
#03458:53
#03455:63
#05652:53
#06252:13
#06652:53
#0665b:63
#06655:00000000000000230000000000000000
#06658:00000000000000230000000000000000
#06752:53
#0675b:63
#07057:00000000000000230000000000000000
#0695b:0000000000000063
#06952:53
#06956:0000006300000000
#06855:00000063
#07257:0000005300000000
#0725b:63
#07356:0000006300000000
#07352:53
#03152:00530000
#03155:0063
#01755:00000063
#01852:53
#01652:53
#01655:00630000
#01358:0053
#0145b:63
#0105b:0063
#01158:53
#00958:00000053
#0215b:13
#0765a:64
#07656:0000000000000024
#07558:0054
#07958:0000000000000016
#07952:0000000000000016
#0013a0:1222
#002340:1222
#003380:1232
#004390:32
#0043a0:0022
#005340:1222
#0063a0:1222
#007360:1232
#008350:32
#008340:0022
#009380:00000013
#0103b0:23
#0103b0:0013
#010380:00000023
#011380:13
#0113b0:00230000
#012350:00130000
#012330:0000003300000000
#012320:0023
#013380:0013
#0133b0:00000023
#0143b0:13
#014380:00230000
#016320:1323
#016350:00330000
#017350:00000013
#018320:33
#018350:00230000
#0183b0:0000001300000000
#0183a0:00000000000000330000000000000000
#018380:00000023
#021380:00000013000000000000002300000000
#0213b0:0000003333000000
#0213a0:00000000000000000033000000000000
#0233b0:13
#023380:00230000
#023320:0000001300000000
#023350:0000000000230000
#023350:0000000000000013
#024320:0023
#027320:13230000
#031320:00130023
#031350:0033
#033320:13
#033350:0000000000000033
#034350:33
#034320:00000023
#0333b1:13
#033381:0000000000000033
#034381:33
#0343b1:00000023
#039381:1222
#040361:12003222
#0413a1:12
#041381:00000022
#043361:1222
#044381:1222
#045361:0000000000000012
#047341:22
#056321:13
#056351:0000000000530033
#057351:3323
#057380:1323
#0603b0:13
#060380:00230000
#0643b0:00130023
#064380:0033
#066320:1300000000000033
#066350:00000000000000530000000000000000
#067320:33
#067350:00000023
#0663b1:1300000000000033
#066381:00000000000000530000000000000000
#0673b1:33
#067381:00000023
#068351:00000013
#069321:33000023
#069361:0000003300000000
#0693b1:0000000000000013
#070371:00000000000000530000000000000000
#0713b1:23
#0723b1:13000023
#072371:0000003300000000
#073321:13000023
#073361:0000003300000000
#0743b1:13000000000000000000005300000000
#074371:0000003300000000
#075371:23
#075381:0014
#0753a1:00000000000000000000003400003400
#0763a1:34
#076361:0000000000000054
#0773a1:00000024
#0783b1:1300003300003300
#0793b1:3300330033333300
#079381:0000000000000026
#078320:1300003300003300
#079320:3300330033333326
