This file was generated by Ched 2.7.0.0.
#TITLE ""
#ARTIST ""
#DESIGNER ""
#DIFFICULTY 0
#PLAYLEVEL
#SONGID ""
#WAVE ""
#WAVEOFFSET 0
#JACKET ""
#REQUEST "ticks_per_beat 480"
#00002: 4
#BPM01: 137
#00008: 01
#TIL00: ""
#VOLUME: ""
#HISPEED 00
#MEASUREHS 00
#02516:0000001313001300
#0251b:2313130000000000
#02512:1300001300000013
#02517:0013000000000000
#02510:41
#02612:0000001300001300
#02616:0000130013000013
#0261b:1300000000000013
#02617:0013000000001300
#02712:13131400
#0271b:0013001300000000
#02716:0000000000140014
#0271a:00000014
#02717:13
#02812:24142400
#02816:0014001400000000
#02818:00000014000000000000000013001300
#02814:00000000000000140000000000000000
#0281a:14241400
#02815:00000000000000000000000000130013
#03215:1313231313002300
#03218:2313131323001300
#0321b:0000000000130000
#03212:0000000000000013
#03817:00001414000000000000000000000000
#03815:000000000000000000000000000000140000140000000000000000000000000013000000000000001300000000000000
#03818:000000000000001300000013
#0381b:23002313
#03812:23002313
#05617:1212000000000000
#05616:0000141400000000
#05619:0000000013131414
#05614:0000000013130000
#05613:0000000000001414
#07912:1525152516261626
#07919:2515251500000000
#07918:0000000026162616
#07818:13001300130023000013000014000000
#07815:2300001313130000
#07814:00000000000000000000000024001818
#07518:2213241526000000
#07514:00140018
#07516:12
#07512:0026
#07515:0023000000000000
#07513:0000002500000000
#07612:13000026000000000000000026000000
#07618:26001300000000000000130000000016
#07615:00000000001326000013000000001300
#0761b:00001313
#07719:0000000015151500
#07718:00130000001300000000000000000000
#07712:0000130015151500
#07715:0026001300000000
#07115:00000013260000130000000013001300
#07112:00130000001300002c00000000000000
#0711b:0013001300000000
#07118:00000000000000000000000000130013
#07116:24
#07110:41
#00612:0012
#00617:0000000000000012
#00614:0000001200000000
#00616:00120000
#0061a:3200000000000012
#0071c:120000000000000000000000000000000000000000000000000000000000000000000000000000000000000000000032
#00715:12
#00719:0012
#00712:0012
#00716:00000012
#0071a:00000000000000000000000000000012
#0071b:000000000000000000000000000000000000000000000032
#0091b:2313000013130013
#00912:2300131300130013
#00917:00130000
#00916:0013
#00918:00000013
#00910:41
#01012:1313
#01019:0013000000000013
#01016:0000130000130000
#01017:00001313
#01014:0000001300000013
#0101b:0000130000130000
#01112:00131300
#01118:0000001300000000
#01119:0000000000130000
#01116:13000000000000000000001300001300
#0111b:1313
#01117:0013000000000000
#0111c:00000022
#01214:1300002300001300
#01212:0013230000000000
#01217:0000000000000013
#01219:0000000000130000
#01216:0023
#01312:13001313
#0131b:0000001300000000
#01318:0000000000000013
#0141b:13131313
#01415:00000000000013000000000000000013
#01412:0013
#01418:0000000000000013
#01414:0000000000130000
#01416:00000013
#01512:13000000000000001300000000130000
#01518:00001300000000130000000000001300
#0151b:13130013
#01515:00000000130013000000130000000013
#01715:0013001300000000
#01712:23131300
#01717:00000013
#0171b:13001313
#01718:00130000
#01710:41
#01812:00130013
#01815:00001300000013130000000000001300
#0181b:0000130000131300
#01818:1313
#01915:1300001300000023
#0191b:1313
#01912:0013130013000000
#01918:00130023
#01916:0000000000130000
#02216:1313
#02217:00130000
#02219:0013001300000000
#02214:0013001300000000
#02212:0000230000130000
#02215:00000013
#02218:00000000000000000000000000130000
#0221b:2300000023130013
#02312:1300131300001300
#0231b:1300001300001300
#02318:0013000000000000
#02315:00000013000000000000000000000000
#02316:000000000000000000000000000000000000000000000000000000000000000000000000000000000000000000000000000000000000000000000000000000000000000000000000000000000000000000000000000000000000000000000000000000000000000000000000000000000000000000000000000000000000000000000000000000000000000000000000000000000000000000000000000000000000000000000000000000000000000000000000000000000000000000000000000000000000000000000000000000000000000000000000000000000000000000000000000000000000000000000000000000000000000000000000000000000000000000000000000000000000000000000000000000000000000000000000000000000000000000000000000000000000000000000000000000000000000000000000000000000000000000000000000000000000000000000000000000000000000000000000000000000000000000000000000000000000000000000000000000000000000000000000000000000000000000000000000000000000000000000000000000000000000000000000000000000000000000000000000000000000000000000000000000000000000000000000000000000000000000000000000000000000000000000000000000000000000000000000000000000000000000000000000000000000000000000000000000000000000000000000000000000000000000000000000000000000000000000000000000000000000000000000000000000000000000000000000000000000000000000000000000000000000000000000000000000000000000000000000000000000000000000000000000000000000000000000000000000000000000000000000000000000000000000000000000000000000000000000000000000000000000000000000000000000000000000000000000000000000000000000000000000000000000000000000000000000000000000000000000000000000000000000000000000000000000000000000000000000000000000000000000000000000000000000000000000000000000000000000000000000000000000000000000000000000000000000000000000000000000000000000000000000000000000000000000000000000000000000000000000000000000000000000000000000000000000000000000000000000000000000000000000000000000000000000000000000000000000000000000000000000000000000000000000000000000000000000000000000000000000013000000000000000000000000000000000000000000000000000000000000000000000000000000000000000000000000000000000000000000000000000000000000000000000000000000000000000000000000000000000000000000000000000000000000000000000000000000000000000000000000000000000000000000000000000000000000000000000000000000000000000000000000000000000000000000000000000000000000000000000000000000000000000000000000000000000000000000000000000000000000000000000000000000000000000000000000000000000000000000000000000000000000000000000000000000000000000000000000000000000000000000000000000000000000000000000000000000000000000000000000000000000000000000000000000000000000000000000000000000000000000000000000000000000000000000000000000000000000000000000000000000000000000000000000000000000000000000000000000000000000000000000000000000000000000000000000000000000000000000000000000000000000000000000000000000000000000000000000000000000000000000000000000000000000000000000000000000000000000000000000000000000000000000000000000000000000000000000000000000000000000000000000000000000000000000000000000000000000000000000000000000000000000000000000000000000000000000000000000000000000000000000000000000000000000000000000000000000000000000000000000000000000000000000000000000000000000000000000000000000000000000000000000000000000000000000000000000000000000000000000000000000000000000000000000000000000000000000000000000000000000000000000000000000000000000000000000000000000000000000000140000000000000000000000000000000000000000000000000000000000000000000000000000000000000000000000000000000000000000000000000000000000000000000000000000000000000000000000000000000000000000000000000000000000000000000000000000000000000000000000000000000000000000000000000000000000000000000000000000000000000000000000000000000000000000000000000000000000000000000000000000000000000000000000000000000000000000000000000000000000000000000000000000000000000000000000000000000000000000000000
#02317:0013
#0301b:0000001300001300
#03016:0013000000001300
#03017:0000130013000013
#03012:1300000000000013
#0311b:1300001300001300
#03116:13
#03112:0000130000130013
#03117:00130000
#03115:0013
#03515:0000160000131600
#03518:0013000013000000
#0351b:2300131300000000
#03512:2300000013001313
#03510:41
#03612:00000000000000001300000013130000
#0361b:1300131300000013
#03618:0013000013000000
#03615:1300160000131600
#03718:13000013000000000000130000001300
#03715:00001300000013001300000000130013
#03712:13130013
#0371b:00131313
#0571b:00000000002300001300130000000000
#05712:26002300000000000013001300000000
#05715:00000026000026000000000000130013
#05718:2600000000001313
#0591b:0000000000001313
#05912:2313000023000013
#05916:00000014
#05917:00230000
#05910:41
#0601b:00131300
#06012:130000160000131c
#06018:0000000000161300
#06016:2413000000000000
#06015:0023
#05819:0013001300000000
#05816:0013001300000000
#05812:13130000
#0581b:23002313
#05817:00230023
#0581f:21
#06412:0000130013000013
#06416:1400001300000000
#0641b:13130013
#06417:0000000000130000
#06112:00130000260000002600000000000000
#06115:00000013000013000000000013001300
#06118:26001300000000132600000000130013
#0611b:00000000001300000000000000000000
#0211b:23000013000000000000001300001300
#02117:0000000000000000001300000000000000000000000000000000000000000000
#02112:1300001300000013
#02115:0013000000000000
#02118:0013
#02116:00000013
#0651b:13131323
#06515:23232613
#06512:0013001300230000
#06518:0023002300000023
#0551b:1300001300000000
#05514:00131300
#05519:00131300
#05512:1300001300001414
#0551a:0000000000001414
#05516:0014000000140000
#05417:0000000000120012
#05412:12
#0541c:0012
#05419:00000012
#05415:00000012
#00116:0012
#00114:00000012
#0011a:12000012
#0011c:0012
#00212:12
#00218:12120000
#00214:0012
#00216:0000001200000000
#00016:00000000000000000000000000000000000000000000000000000000000000000000000000000000000000000000000000000000000000000000000000000012
#00815:0000000000000013
#00812:0000000000160000
#00818:00000016
#0081c:32
#0391c:12
#0391a:0012000000000000
#03918:00120000
#0391b:0000000000000013
#0401b:1300000000000013
#04019:0012
#04014:0000000000000012
#04016:00000012
#04112:1200000000000013
#04116:00120000
#04114:0012000000000000
#0411b:13
#04212:13
#04312:12
#04314:0012000000000000
#0431b:0000000000000013
#04316:00120000
#04318:0000001200000000
#04317:00000022
#0441b:1300000000000013
#04415:0022000000000000
#04413:0022
#04412:00000022
#06214:0013001300000000
#06217:0013001300000000
#0621b:13130000
#06212:23002313
#06216:00230023
#0631b:2313000023000013
#06312:0000000000001313
#06316:00230014
#06615:00001300000000000013000000000013
#06618:00000013000000001300000000002300
#06612:2300132300002300
#0661b:2300002300132300
#06712:1313
#0671b:23001300000000000013000000000000
#06716:00000013000000000000000000000000
#06719:00000000130000000000000000130000
#06714:00000000001300000000000013000000
#06717:0000001300000000
#06713:0000000000130000
#0671a:00000000000000000000001300000000
#06715:0000000000000013
#06718:00000000000000000000000000000013
#06814:0013000000130000
#06819:0000001300000000
#06812:23001313
#06817:0000000000000013
#0681b:00130013
#06918:00000000000000000000000000130000
#0691b:0000131300000013
#06912:1313
#06915:00000013
#06917:00000013000000000000000000000000
#06916:00000000000000000013000000000000
#0701b:00130013
#07019:0013001300130013
#07017:1313
#07218:00130013
#0721b:2313
#07212:2626262626262626
#07315:00000000000000000000001300001300
#07318:00000000130000000000130013000013
#0731b:1313
#07312:2626262626001300
#0341b:13000013000000001300130000000000
#03418:00000000001300000000000013001300
#03415:00001300000000000000000000130013
#03412:1300001313130000
#03315:00001300000000000013000000000013
#03318:00000013000000001300000000001300
#03312:2300131300001300
#0331b:1300001300131300
#02917:0000001313001300
#02912:2313130000000000
#0291b:1300001300000013
#02916:0013000000000000
#0241b:1313
#02415:0013131300000000
#02418:00000013001300130000000000000000
#02412:1313
#02018:0023130000001313
#02015:00001300230000000000000000130013
#02012:1300001323000000
#0201b:2300002313000000
#0161b:13000013
#01612:13000013
#0161a:0013000000000000
#01619:00130000
#01618:00000000000013001300130000000013
#01615:00000000000013000013000000001300
#01613:0013000000000000
#01614:00130000
#0451b:13
#04514:12
#04516:00001200000000000000000000000012
#04518:00120000
#04515:0000000000000000000000000000000000000000000000000000000000000032
#0741b:1313000000001300
#07412:23000013
#07418:0000000000130000
#07415:00000000000000000000001300000000
#07417:00121200
#04818:1212
#0481a:0012001200120012
#0481c:00120012
#0481f:11
#04918:1200000012000012
#0491a:0012001200001200
#0491c:0000120000120000
#05016:1212
#05014:0012001200120012
#05012:00120012
#05116:12001212
#05114:0012001200000000
#05112:00120000
#05118:0000000000000012
#05212:1313000013130000
#05215:0000131300001300
#05218:0000000000000013
#0531b:1313000023000000
#05318:0000131300000000
#05315:00000000000000130000000000000000
#05312:0023
#0051a:12120000
#00518:0000000000000000000000000000000012000000000000001200000000000012
#00516:0012001200000000
#00514:0000000000120012
#00519:00000000000000000000000000000000000000000000000000000000000000000000000000000000000000000000000000000000000000000000000000000032
#00414:00000000000000120000000000000000
#0041b:12
#00413:0000000000000000000000000000003200000000000000000000000000000000
#00412:0032
#00317:12
#00319:0012
#04614:32
#02256:1313
#02257:00130000
#05758:16
#05752:16
#05755:00000046000036000000000000000000
#01056:0000000000230000
#01052:0053
#0215b:13000063000000000000000000000000
#02157:0000000000000000002300000000000000000000000000000000000000000000
#02556:0000002300000000
#0255b:43630000
#02557:0023000000000000
#02552:53
#05856:0023002300000000
#05852:53530000
#0585b:43
#06456:3400002300000000
#0645b:00630000
#06457:0000000000230000
#06452:0053
#07156:14
#07155:00160000
#07152:001c
#06158:4646
#06152:00363600
#06257:0023002300000000
#0625b:63630000
#06252:33
#0665b:43000043
#06652:0000003300000000
#0725b:1313
#07258:00130013
#07558:0046
#07552:0036
#07658:46
#07652:00000036000000000000000036000000
#07655:0000004600000000
#07755:0036000000000000
#07858:0000004300000000
#07854:00000034
#07855:33
#07959:45450000
#07958:00004646
#07952:0035003500360036
#07358:00130013
#0735b:1313
#06857:0000000000000023
#0685b:00000063
#06957:00000023000000000000000000000000
#06952:53
#06956:00000000000000000023000000000000
#0695b:0000006300000000
#06056:4423000000000000
#06052:53
#0335b:13000013
#03352:0000001300000000
#03455:0013000000000000
#03555:00360046
#03655:00360046
#0275b:0023000000000000
#02757:53
#02852:00340000
#0285a:4444
#02956:0023000000000000
#0295b:63
#02952:33530000
#02957:0000002300000000
#06356:00000044
#05956:00000034
#03157:00530000
#0315b:0000002300000000
#03155:0063
#03152:0000000000230000
#02452:0033
#0245b:0043
#02357:0023
#02352:0000005300000000
#02356:000000000000000000000000000000000000000000000000000000000000000000000000000000000000000000000000000000000000000000000000000000000000000000000000000000000000000000000000000000000000000000000000000000000000000000000000000000000000000000000000000000000000000000000000000000000000000000000000000000000000000000000000000000000000000000000000000000000000000000000000000000000000000000000000000000000000000000000000000000000000000000000000000000000000000000000000000000000000000000000000000000000000000000000000000000000000000000000000000000000000000000000000000000000000000000000000000000000000000000000000000000000000000000000000000000000000000000000000000000000000000000000000000000000000000000000000000000000000000000000000000000000000000000000000000000000000000000000000000000000000000000000000000000000000000000000000000000000000000000000000000000000000000000000000000000000000000000000000000000000000000000000000000000000000000000000000000000000000000000000000000000000000000000000000000000000000000000000000000000000000000000000000000000000000000000000000000000000000000000000000000000000000000000000000000000000000000000000000000000000000000000000000000000000000000000000000000000000000000000000000000000000000000000000000000000000000000000000000000000000000000000000000000000000000000000000000000000000000000000000000000000000000000000000000000000000000000000000000000000000000000000000000000000000000000000000000000000000000000000000000000000000000000000000000000000000000000000000000000000000000000000000000000000000000000000000000000000000000000000000000000000000000000000000000000000000000000000000000000000000000000000000000000000000000000000000000000000000000000000000000000000000000000000000000000000000000000000000000000000000000000000000000000000000000000000000000000000000000000000000000000000000000000000000000000000000000000000000000000000000000000000000000000000000000000000000000000000000000000000000023000000000000000000000000000000000000000000000000000000000000000000000000000000000000000000000000000000000000000000000000000000000000000000000000000000000000000000000000000000000000000000000000000000000000000000000000000000000000000000000000000000000000000000000000000000000000000000000000000000000000000000000000000000000000000000000000000000000000000000000000000000000000000000000000000000000000000000000000000000000000000000000000000000000000000000000000000000000000000000000000000000000000000000000000000000000000000000000000000000000000000000000000000000000000000000000000000000000000000000000000000000000000000000000000000000000000000000000000000000000000000000000000000000000000000000000000000000000000000000000000000000000000000000000000000000000000000000000000000000000000000000000000000000000000000000000000000000000000000000000000000000000000000000000000000000000000000000000000000000000000000000000000000000000000000000000000000000000000000000000000000000000000000000000000000000000000000000000000000000000000000000000000000000000000000000000000000000000000000000000000000000000000000000000000000000000000000000000000000000000000000000000000000000000000000000000000000000000000000000000000000000000000000000000000000000000000000000000000000000000000000000000000000000000000000000000000000000000000000000000000000000000000000000000000000000000000000000000000000000000000000000000000000000000000000000000000000000000000000000000000000000000000000000000000000000000000000000000000000000000000000000000000000000000000000000000000000000000000000000000000000000000000000000000000000000000000000000000000000000000000000000000000000000000000000000000000000000000000000000000000000000000000000000000000000000000000000000000000000000000000000000000000000000000000000000000000000000000000000000000000000000000000000000000000000000000000000000000000000000000000000000000000000000000000000000000000000000000000000000000000
#0235b:0000006300000000
#00956:0063
#00952:0000000000230000
#00958:00000053
#0095b:0000000000000023
#0115b:63
#01157:0023000000000000
#01757:00000063
#01752:1353
#0175b:0013
#0185b:00000013
#0195b:0013
#01956:0000000000230000
#01952:0053
#02055:0013000000000000
#02058:00130000
#02052:0000001300000000
#0205b:0013
#04556:00000000000000000000000000000062
#00756:00000062
#0075a:00000000000000000000000000000052
#0745b:00000013
#07452:33000013
#00454:00000000000000620000000000000000
#00558:0000000000000000000000000000000000000000000000000000000000000052
#003320:12220000
#003340:00001222
#004360:12220000
#0043c1:00000000120000220000000000000000
#004340:00000000000000120000000000000000
#004330:0000000000000000000000000000003200000000000000000000000000000000
#004320:0032
#005320:22
#005380:0000000000000000000000000000000000000000000000000000000000000012
#005390:00000000000000000000000000000000000000000000000000000000000000000000000000000000000000000000000000000000000000000000000000000032
#0063a0:32220000
#007360:00000012
#008320:0022
#0073a1:00000000000000000000000000000012
#0073b1:000000000000000000000000000000000000000000000032
#0073c1:000000000000000000000000000000000000000000000000000000000000000000000000000000000000000000000032
#0083c1:3222
#009361:0013
#009321:0000000000530000
#009351:00000023
#009380:00000013
#0093b0:0000000000000053
#010370:23
#010320:00001323
#010360:0000000000530000
#0113b0:13230000
#011370:0053000000000000
#0113c0:00000012
#0123c0:0022
#0133b0:13230000
#013370:0033000000000000
#013321:0013002300000000
#013361:00330000
#0133b1:0013
#013351:00000023
#014321:13
#014381:00230000
#017321:0013
#017371:00000033
#018321:23
#019321:00001323
#019361:0000000000530000
#0213b1:00000013000023000000000000000000
#021371:0000000000000000005300000000000000000000000000000000000000000000
#021321:00000000000000000013000000000000
#021361:00000000000000000000002300000000
#023321:0000001300230000
#023361:000000000000000000000000000000000000000000000000000000000000000000000000000000000000000000000000000000000000000000000000000000000000000000000000000000000000000000000000000000000000000000000000000000000000000000000000000000000000000000000000000000000000000000000000000000000000000000000000000000000000000000000000000000000000000000000000000000000000000000000000000000000000000000000000000000000000000000000000000000000000000000000000000000000000000000000000000000000000000000000000000000000000000000000000000000000000000000000000000000000000000000000000000000000000000000000000000000000000000000000000000000000000000000000000000000000000000000000000000000000000000000000000000000000000000000000000000000000000000000000000000000000000000000000000000000000000000000000000000000000000000000000000000000000000000000000000000000000000000000000000000000000000000000000000000000000000000000000000000000000000000000000000000000000000000000000000000000000000000000000000000000000000000000000000000000000000000000000000000000000000000000000000000000000000000000000000000000000000000000000000000000000000000000000000000000000000000000000000000000000000000000000000000000000000000000000000000000000000000000000000000000000000000000000000000000000000000000000000000000000000000000000000000000000000000000000000000000000000000000000000000000000000000000000000000000000000000000000000000000000000000000000000000000000000000000000000000000000000000000000000000000000000000000000000000000000000000000000000000000000000000000000000000000000000000000000000000000000000000000000000000000000000000000000000000000000000000000000000000000000000000000000000000000000000000000000000000000000000000000000000000000000000000000000000000000000000000000000000000000000000000000000000000000000000000000000000000000000000000000000000000000000000000000000000000000000000000000000000000000000000000000000000000000000000000000000000000000000000000000000053000000000000000000000000000000000000000000000000000000000000000000000000000000000000000000000000000000000000000000000000000000000000000000000000000000000000000000000000000000000000000000000000000000000000000000000000000000000000000000000000000000000000000000000000000000000000000000000000000000000000000000000000000000000000000000000000000000000000000000000000000000000000000000000000000000000000000000000000000000000000000000000000000000000000000000000000000000000000000000000000000000000000000000000000000000000000000000000000000000000000000000000000000000000000000000000000000000000000000000000000000000000000000000000000000000000000000000000000000000000000000000000000000000000000000000000000000000000000000000000000000000000000000000000000000000000000000000000000000000000000000000000000000000000000000000000000000000000000000000000000000000000000000000000000000000000000000000000000000000000000000000000000000000000000000000000000000000000000000000000000000000000000000000000000000000000000000000000000000000000000000000000000000000000000000000000000000000000000000000000000000000000000000000000000000000000000000000000000000000000000000000000000000000000000000000000000000000000000000000000000000000000000000000000000000000000000000000000000000000000000000000000000000000000000000000000000000000000000000000000000000000000000000000000000000000000000000000000000000000000000000000000000000000000000000000000000000000000000000000000000000000000000000000000000000000000000000000000000000000000000000000000000000000000000000000000000000000000000000000000000000000000000000000000000000000000000000000000000000000000000000000000000000000000000000000000000000000000000000000000000000000000000000000000000000000000000000000000000000000000000000000000000000000000000000000000000000000000000000000000000000000000000000000000000000000000000000000000000000000000000000000000000000000000000000000000000000000000000000000000000
#0233b0:0000001300230000
#023370:0053
#025320:13230000
#025370:0053000000000000
#0253b1:00132300
#025361:0000005300000000
#0253b1:00000013
#025361:0000000000000023
#026371:13
#026321:0023000000000000
#0263b1:00132300
#026361:0000003300000000
#027371:13230000
#0273b1:0053000000000000
#027371:0013
#0273b1:0000000000230000
#027361:00000013
#027321:0000000000000023
#0293b1:13230000
#029361:0053000000000000
#029320:00132300
#029370:0000005300000000
#029320:00000013
#029370:0000000000000023
#030360:13
#0303b0:0023000000000000
#030320:00132300
#030370:0000003300000000
#031370:00130000
#0313b0:0000005300000000
#031380:0023
#031351:0013
#031321:0000000000530000
#031361:00000023
#039361:0000001200000000
#040321:0022
#041381:0000001200000000
#0433c1:22
#0453a1:0000001200000000
#0473c1:22
#045360:00000000000000000000000000000012
#045350:0000000000000000000000000000000000000000000000000000000000000032
#046340:32
#047320:22
#048320:12220000
#048350:00001222
#049330:12220000
#049360:00001222
#0503c0:12220000
#050390:00001222
#0513b0:12220000
#051380:00001222
#0523b0:13
#052380:0023000000000000
#052380:00130000
#0523b0:0000002300000000
#0523b0:0013
#052380:0000000000230000
#053320:13
#053350:0023000000000000
#053350:00130000
#053320:0000002300000000
#054370:12
#0543c0:00220000
#054371:00120000
#054321:0022
#058321:13332300
#058361:0053005300000000
#058371:00000013
#058321:0000000000000023
#0583b0:0000000000000013
#059360:23
#059360:0013000000000000
#0593b0:00230000
#059371:00130000
#059321:0000002300000000
#0593b0:0000001300000000
#059360:0023
#060320:13230000
#060360:0053000000000000
#0623b0:13332300
#062370:0053005300000000
#062360:00000013
#0623b0:0000000000000023
#062321:0000000000000013
#063371:23
#063371:0013000000000000
#063321:00230000
#063360:00130000
#0633b0:0000002300000000
#063321:0000001300000000
#063371:0023
#0643b1:00132300
#064361:0000005300000000
#064320:00001323
#064370:0000000000530000
#0683b0:13
#068370:00532300000000000000000000000000
#068320:00130000
#068360:00000000005323000000000000000000
#0683b0:0013
#068370:00000000000000000053230000000000
#0683b0:00000013
#068370:0000000000000053
#0693b0:23
#069321:1300002300000000
#069371:00000053000000000000000000000000
#0693b0:0000001300002300
#069360:00000000000000000053000000000000
#069320:0000000000000000000000000000000000000000000000000000000013535353
#069340:00000000000000000000000000000000000000000000000000000000000000000000000000000000000000000000000000000000000000000053005300530053
#070320:5353535353535353535353535353535353535353535353535353535353535353
#070340:00530053005300530053005300530053005300530053005300530053005300530053005300530053005300530053005300530053005300530053005300530053
#071320:23
