This file was generated by Ched 2.7.0.0.
#TITLE ""
#ARTIST ""
#DESIGNER ""
#DIFFICULTY 0
#PLAYLEVEL
#SONGID ""
#WAVE ""
#WAVEOFFSET 0
#JACKET ""
#REQUEST "ticks_per_beat 480"
#00002: 4
#BPM01: 137
#00008: 01
#TIL00: ""
#VOLUME: ""
#HISPEED 00
#MEASUREHS 00
#0051a:1414
#00612:1414
#00718:1414
#00814:1414
#00914:00140014
#0091a:2414
#00910:41
#01018:1414
#01012:00140000
#01112:1414
#01118:00140014
#01214:1424
#0121a:00240000
#01314:00140000
#01312:00000014
#01318:0014
#0131a:14
#01418:14
#01414:00140000
#0141a:0014
#01518:00140000
#0151a:00000014
#01514:0014
#01512:14
#01614:14
#01618:00140000
#01612:0014
#0211a:14
#02112:00140000
#02118:0014
#02114:00000014
#0221a:14
#02212:00140000
#02218:0014
#02512:00140000
#02518:0014
#02514:00000014
#0251a:24
#02510:41
#0261a:14
#02612:00140000
#02618:0014
#02614:00000014
#0281a:14
#02816:00140000
#02812:0014
#02818:00000014
#0291a:00140000
#02914:0014
#02918:00000014
#02912:24
#03012:14
#0301a:00140000
#03014:0014
#03018:00000014
#03514:00140000
#03518:0014
#03512:00000014
#03510:41
#0361a:14
#03614:00140000
#03618:0014
#03612:00000014
#0371a:14140000
#03712:00001414
#04018:14
#04014:0014
#03914:0014
#04414:14
#04418:0014
#04314:14
#04318:0014
#0541a:14
#05414:0014
#05812:00140000
#05818:2614
#05814:00000014
#0581f:21
#0591a:14
#05916:00140014
#05912:0014
#05910:41
#06514:14
#0651a:00140000
#06512:0014
#06518:00000014
#05518:14
#05512:0014
#05714:00000014
#06112:00161600
#06118:1400001600001400
#0681a:00140000
#06814:0014
#06818:00000014
#07018:00140000
#07014:0014
#0701a:00000014
#07112:14
#07116:00140000
#0711a:0014
#07114:00000014
#07110:41
#07512:0014
#0751a:0014
#06912:14
#06915:0014
#06612:14
#06716:14
#0561a:14
#05617:0014
#0521a:14
#05312:14
#04118:14
#03818:14
#0381a:0014
#0331a:14
#03416:14
#02314:0000000000000014
#03212:14
#03216:00140000
#0321a:0014
#03214:00000014
#0621a:00140000
#06214:0014
#06218:00000014
#06212:26
#06312:14
#06316:00140014
#0631a:0014
#04514:14
#04612:14
#0481f:11
#01710:41
#05858:16
#0575a:14
#0355a:14
#06852:14
#07052:14
#07558:14
#07552:0054
#0755a:0064
#06952:54
#06955:0024
#06652:54
#06756:64
#0565a:64
#05657:0024
#0525a:64
#05352:54
#04158:54
#03858:54
#0385a:0024
#0335a:64
#03456:54
#02354:0000000000000054
#06252:16
#04554:64
#04652:54
#0013a0:1424
#002320:1424
#003380:1424
#004340:1424
#0173a0:14
#017370:0034
#0183a0:34
#018370:0024
#019320:14
#019350:0034
#020320:34
#020350:0024
#023340:1400003400003434
#024360:0024
#0273a0:14240000
#027320:00001424
#031320:14240000
#0313a0:00001424
#0333a0:14
#034360:34
#0353a0:24
#038380:14
#0383a0:0054
#039380:24
#041380:14
#0423a0:24
#045340:14
#046320:34
#047340:24
#048380:14
#0483a0:0034
#049380:34
#0493a0:0024
#050340:14
#050320:0034
#051340:34
#051320:0024
#0523a0:14
#052380:0024
#053320:14
#053340:0024
#0563a0:14
#056370:0054
#0573a0:24
#0603a0:14
#060380:00240000
#060320:0014
#060340:00000024
#064320:14
#064340:00240000
#0643a0:0014
#064380:00000024
#066320:14
#067360:34
#068320:24
#069320:14
#069350:0054
#070320:24
#072380:14
#072390:0000003400000000
#0723a0:00000034
#0733a0:34
#073390:0000003400000000
#073380:00000034
#074380:34
#0743a0:0000003400000000
#075380:24
#0753a0:0014
#076380:34
#0773a0:00000024
#075321:0014
#076341:34
#077321:00000024
#0783a1:14
#079381:0000000000000024
#078320:14
#079340:0000000000000024
