This file was generated by Ched 2.7.0.0.
#TITLE ""
#ARTIST ""
#DESIGNER ""
#DIFFICULTY 0
#PLAYLEVEL
#SONGID ""
#WAVE ""
#WAVEOFFSET 0
#JACKET ""
#REQUEST "ticks_per_beat 480"
#00002: 4
#BPM01: 183
#00008: 01
#TIL00: ""
#HISPEED 00
#MEASUREHS 00
#0021a:14
#00314:14
#00418:14
#00512:14
#0061a:14
#00714:14
#00818:14
#00912:14
#01212:14
#01210:41
#01312:14
#01418:14
#01518:14
#01614:14
#01714:14
#0181a:14
#0191a:14
#02812:14
#0281f:11
#02918:14
#03014:14
#0311a:14
#03518:14
#03514:0014
#03612:0016
#03618:26
#0361f:21
#03718:16
#03712:0016
#03710:41
#04018:1616
#04112:1616
#04312:16
#04318:0016
#04418:0016
#04412:26
#04512:16
#04518:0016
#04812:1616
#04918:1616
#05118:16
#05112:0016
#05418:16
#05412:0016
#05518:16
#05512:0016
#05618:16
#05612:0016
#05918:16
#05912:0016
#06018:2616
#06118:1616
#06212:2616
#06210:41
#06312:1616
#0801a:00343400
#08114:00343400
#02310:41
#05210:41
#07110:41
#0103a0:14
#0113a0:24
#020320:14
#021320:24
#022380:14
#023380:24
#024340:14
#025340:24
#0263a0:14
#0273a0:24
#032320:1400003400003400
#033320:0034000024000000
#038380:1626
#039320:1626
#042380:1626
#046320:1626
#047380:1626
#050320:1626
#052380:1626
#053320:1626
#057380:1626
#058320:1626
#0643a0:14
#0653a0:24
#066340:14
#067340:24
#068380:14
#069380:24
#070320:14
#071320:24
#0723a0:14
#0733a0:24
#074340:14
#075340:24
#076380:14
#077380:24
#078320:14
#079320:24
#0803a0:14343400
#080380:00000024
#081340:14343400
#081320:00000024
