This file was generated by Ched 2.7.0.0.
#TITLE ""
#ARTIST ""
#DESIGNER ""
#DIFFICULTY 0
#PLAYLEVEL
#SONGID ""
#WAVE ""
#WAVEOFFSET 0
#JACKET ""
#REQUEST "ticks_per_beat 480"
#00002: 4
#BPM01: 183
#00008: 01
#TIL00: ""
#HISPEED 00
#MEASUREHS 00
#0021b:1300000000000013
#00218:0013000000001300
#00215:0000130000130000
#00212:1300001300000000
#00318:0013000000000000
#00315:00130000
#00312:0000001300001300
#0031b:0000000000000013
#0041b:0013000000000013
#00418:00130013
#00415:0000001300130000
#00412:0000000013000013
#00817:0013
#00818:0000000000130000
#00819:00000013
#0081a:0000000000000013
#00813:00000000000000000013000000000000
#00814:00000000000000000000001300000000
#00815:00000000130000000000000000130000
#00812:0013000000000000
#0081b:00130000
#00512:0013000000130000
#00515:00130013
#00518:0000001300000013
#0051b:0013
#00917:0013000000131300
#00919:00130000
#0091b:0000001300000000
#00912:0013000000330000
#00914:00130000
#00916:0000001300000000
#0111b:0013000000130000
#01119:00130000
#01118:00000013
#01115:0000000000000013
#01116:0013000000000000
#01114:00130000
#01112:0000002300000000
#01117:0000002300000000
#01216:0000001313000000
#01217:0000000000000013
#0121b:2300001300000000
#01212:2300000000001313
#01210:41
#0131b:0013000000000000
#01312:0000000000130000
#01315:00000013
#01318:0000000000000013
#01316:0013000000000000
#01412:0013000000000013
#01415:00131300
#01418:0000001300001313
#0141b:0013
#0151b:0013000013000000
#01518:0000001300130000
#01515:0013000000001300
#01512:0000000000000013
#01617:0000001313000000
#0161b:23000013
#01618:0000000000000013
#01612:0000001313000000
#01616:23
#01715:13
#01712:0013000000130000
#01714:00000013
#01716:0000000000000013
#01717:0013000000000000
#0171b:0000001300000013
#01812:0013000000000013
#01815:00130013
#01818:0000001300130000
#0181b:0000000013000013
#01918:0000000000131300
#01915:00000000000000000000001300001300
#0191b:0013130013000000
#01912:0013
#01916:0013130000000000
#0201b:13
#02012:1300001313000000
#02017:0013
#02014:00000013
#02114:00130013
#02112:0013
#0211b:13
#02117:0013
#02214:00130000
#02212:0013
#0221b:13
#02217:0013
#02315:00000013
#02318:0000000000000013
#02310:41
#02416:000014000000000000130000
#0241a:001400
#02412:2414
#0241b:00000013
#02517:00130013
#0251b:0013
#02516:0013
#02512:00000013
#0261b:00130000
#02616:00130000
#0271b:0000001300000000
#02718:00001313
#02715:0000000000130013
#02816:0000001313000000
#02817:13000013
#02812:23000013
#0281f:11
#0281b:0000003300000000
#02912:0013
#02919:00000013
#0291b:00130000
#02917:0013
#02914:00000013
#0311b:0000000000130000
#03118:00000013
#03115:0000000000000013
#03112:00130000
#03212:13000013
#03216:0000001300000000
#03217:23000023
#0321b:0000002300000000
#03316:0013000000000000
#0331b:0023000000000000
#03317:0023
#0341b:1313000000000000
#03416:00130013000000000000000000000000
#03419:0000131300000000
#03414:00000000001300130000000000000000
#03417:0000000013131300
#03412:00000000000000000013001300000000
#0351b:13131313
#03512:13131313
#03518:0013000000130000
#03515:0000001300000013
#03617:0000001313000000
#0361b:23000013
#03612:2300001313000000
#03616:00000013
#0361f:21
#03717:13000013
#0371b:0000001300000000
#03712:13000013
#03710:41
#0381b:1300001300000000
#03817:00000000130000000013000000000000
#03812:00130000
#03816:1300001300001300
#04017:1313
#0401b:0000001300000013
#04019:00000000000000000000001300000000
#04012:1323
#04014:00000000000000000000002300000000
#04016:0000000000000023
#04117:1313
#0411b:00130013
#04116:00130013
#04112:2313
#04119:0000000000130000
#04114:0000000000000013
#04217:1313
#04219:0000001300000000
#0421b:00130000
#04215:00000013
#04212:13
#04216:00130000
#04214:0000003300000000
#04412:2300131300000000
#0441b:13000013
#04416:00000013
#04417:00330000
#04517:00000013
#0451b:2300131300000000
#04512:13000013
#04516:00330000
#0461b:13000023
#04617:0000001313000000
#04616:13000023
#04612:0000003300000000
#04717:23000013
#04712:23000013
#04716:0000002300000000
#04816:13000000000013000000002400000000
#0481b:13
#04817:00000013000000000000000000000000
#04812:0024
#0481a:0000000000000024
#04916:00130013
#04917:0013
#04912:2424
#0491a:00240024
#0501b:00000013
#05012:00130000
#0521b:2300000000000013
#05212:2300001313000000
#05217:0000001313000000
#05216:0000000000000013
#05210:41
#0531b:13
#05317:00130000
#05316:13000013
#05312:00130000
#0541b:13132313
#05412:13231323
#05418:0000001300000000
#05417:0000000000130000
#05416:0000000000000013
#05512:13231323
#0551b:23132313
#05516:0000001300000000
#05515:0013000000000000
#05517:0000000000130000
#05617:00000013
#05612:00000013
#05716:1313
#05714:0000001300000000
#05712:00130013
#05717:00130013
#0571b:13
#05719:0000003300000000
#0581b:1313
#05817:00130000
#05917:13
#05918:00130000
#05919:0013
#0591a:00000013
#05912:13
#05913:00130000
#05914:0013
#05915:00000013
#06012:0000000013000013
#06016:13000000000000000000001300000000
#0601b:23232323
#06114:00000013
#06116:0013
#06112:13
#0611b:23232323
#06212:1313
#0621b:2300001300000000
#06216:0000000000000013
#06217:0013
#06210:41
#06317:1313
#06316:00130013
#06312:2424
#0631a:00240024
#06516:0013
#06518:0000000000000013
#0651b:0013
#06612:13
#0661b:13
#06616:0013
#06717:13000013
#06716:0000001300000000
#06816:13000013
#06812:0000001313000000
#0681b:1300000000000013
#06817:00130000
#0701b:13000013
#07012:0000001300000000
#07116:13000013
#07117:0000001300000000
#0711b:13
#07110:41
#07212:13
#07217:2313
#0721b:00000013
#07216:00130000
#07312:13
#07317:0013
#07315:0000000000000013
#07316:00130000
#08012:12
#08015:0012000000000000
#08018:00120000
#0801b:0000001200000000
#08013:0012
#08016:0000000000120000
#08019:00000012
#0801c:0000000000000012
#00612:1300000000000013
#00615:0013000000001300
#00618:0000130000130000
#0061b:1300001300000000
#00715:0013000000000000
#00718:00130000
#0071b:0000001300001300
#00712:0000000000000013
#03017:0000001313000000
#03016:13000013
#0301b:23000013
#03012:0000003300000000
#03916:13000013
#03912:0000001300000000
#0391b:13000013
#04312:13131313
#0431b:13131313
#04315:0013000000130000
#04318:0000001300000013
#0511b:13131313
#05112:13131313
#05118:0013000000130000
#05115:0000001300000013
#06912:0000001313000000
#0691b:1300000000000013
#06917:00130000
#06916:00000013
#0741b:13
#07412:13
#07417:0013
#07516:13000013
#07517:0000001300000000
#07617:13000013
#0761b:0000001313000000
#07612:1300000000000013
#07616:00130000
#07812:13000013
#0781b:0000001300000000
#0771b:0000001313000000
#07712:1300000000000013
#07716:00130000
#07717:00000013
#0791b:0013000000000000
#07912:0013
#08112:12
#08115:0012000000000000
#08118:00120000
#0811b:0000001200000000
#08113:0012
#08116:0000000000120000
#08119:00000012
#0811c:0000000000000022
#01012:0000000000000023
#01017:0000000000000023
#0045b:0000000000000013
#00452:0000000000000013
#00252:0000001300000000
#0025b:0000000000000013
#00352:0000001300000000
#0065b:0000001300000000
#00652:0000000000000013
#0075b:0000001300000000
#00956:0000005300000000
#00957:00000013
#01252:0000000000000013
#0125b:13
#0135b:0013000000000000
#01358:0000000000000053
#01455:0053
#01452:0000000000000053
#01555:0053000000000000
#01757:0053000000000000
#0175b:0000002300000053
#01752:0013000000000000
#01852:0000000000000013
#0185b:0000000000000013
#0205b:53
#02057:0023
#0215b:53
#02157:0023
#0225b:53
#02257:0023
#02252:0023
#02456:00000053
#02552:00000053
#02656:00530000
#0265b:00530000
#02857:53
#02852:00000053
#03056:63
#0305b:00000063
#03252:53000053
#03256:0000005300000000
#03356:0053000000000000
#0365b:13
#03652:13
#03752:53
#03756:0000001300000000
#0395b:63
#03957:0000001300000000
#0385b:0000005300000000
#03857:00000000000000000023000000000000
#04052:53
#04252:53
#04256:00230000
#04452:13
#0445b:53
#04552:63
#0455b:13
#04656:53
#04756:0000001300000000
#0475b:0000001300000000
#04757:53
#0485b:53
#04857:00000023000000000000000000000000
#04956:00000053
#05052:00230000
#0525b:13
#05252:1313
#0535b:13
#05357:00530000
#05655:00130000
#05658:00130000
#0555b:00000053
#05552:00000053
#0575b:53
#05757:00230000
#0585b:0013
#06252:53
#06257:0053
#06056:53
#06152:53
#0635a:00000054
#06356:00000053
#06652:53
#06656:0023
#06757:53
#06756:0000005300000000
#0685b:53
#06857:00230000
#06852:0063
#06856:00000023
#0695b:53
#06957:00230000
#06952:0063
#06956:00000023
#0705b:53
#07052:0000005300000000
#07156:53
#07157:0000005300000000
#0745b:63
#07457:0023
#07556:63
#07557:0000006300000000
#07852:63000063
#0785b:0000006300000000
#07652:63
#07656:00230000
#0765b:0053
#07657:00000023
#07752:63
#07756:00230000
#0775b:0053
#07757:00000023
#0795b:0063000000000000
#07252:53
#07257:0053
#07256:00230000
#0725b:00000023
#07352:53
#07356:00230000
#01057:0000000000000013
#01052:0000000000000013
#0165b:13
#0023b0:0000001300230000
#002320:0000000000000013
#003320:0023000000000000
#003380:0000001300002300
#003350:0000000000000013
#004350:0023000000000000
#006320:0000001300230000
#0063b0:0000000000000013
#0073b0:0023000000000000
#007350:0000001300002300
#007380:0000000000000013
#008380:0023000000000000
#009360:0000001300000000
#009320:0000000000332300
#0103b0:130053330000
#010370:000053000000330000000000000053000000000000230000
#010361:13
#010321:005300230000000000000000
#010361:0013
#010321:000000000000000000000000000053000000000000230000
#0123b1:00001323
#013381:0000000000000013
#0143b1:0023000000000000
#014351:0013
#014321:0000000000000033
#015351:0033000000000000
#015321:0000002300000000
#017371:0013000000230000
#0173b1:0000005300000000
#0173b1:0000000000000013
#018371:0023000000000000
#0203b1:13
#020371:0053
#0213b1:33
#021371:0053
#0223b1:33
#022371:0053
#0233b1:23
#022320:0013
#023360:23
#024360:00000013
#025320:00230000
#025320:00000013
#026360:00330000
#027320:23
#0263b1:00130000
#027371:23
#028371:13
#0283b1:0000003323000000
#028321:00000013
#029361:00230000
#030361:13
#030321:0000003323000000
#0303b1:00000013
#031371:00230000
#032321:13000033
#032361:0000003300000000
#033361:0033000000000000
#033321:0023
#037321:13
#037361:0000002300000000
#0383b1:0000001300002300
#038371:00000000000000000053000000000000
#0393b1:13
#039371:0000002300000000
#040321:13
#040361:0000002300000000
#042321:1323
#042361:00330000
#042341:0000003300000000
#0443b1:13
#044371:0000332300000000
#045321:13
#045361:0000332300000000
#046361:13
#046321:0000003323000000
#047371:13
#0473b1:0000002300000000
#0483b1:1300002300000000
#048371:00000053000000000000000000000000
#049361:00000013
#050321:00530000
#050361:00000023
#053371:00130000
#0533b1:00000023
#0553b1:00000013
#056381:00230000
#055320:00000013
#056350:00230000
#0573b0:1323
#057370:00330000
#057390:0000003300000000
#058360:1323
#058320:00330000
#060360:13
#060320:0000002300000000
#061320:13
#061360:00230000
#062320:13
#062360:0000002300000000
#062370:0013
#0623b0:0000000000000023
#0633a0:00000014
#065360:24
#063361:00000013
#065321:23
#066321:13
#066361:0053
#067321:23
#067370:13
#0673b0:0000002300000000
#067361:0000001300000000
#067321:00000023
#0683b1:1323
#068371:00530000
#068320:0013
#068360:00000053
#069320:23
#0693b1:1323
#069371:00530000
#069320:0013
#069360:00000053
#070320:23
#0703b1:13
#070371:0000002300000000
#070320:0000001300000000
#070360:00000023
#071360:13
#071320:0000002300000000
#071371:0000001300000000
#0713b1:00000023
#072321:1323
#072361:00530000
#072370:0013
#0723b0:00000053
#073370:23
#073321:1323
#073361:00530000
#0743b1:13
#074371:0053
#0753b1:23
#075360:13
#075320:0000002300000000
#075371:0000001300000000
#0753b1:00000023
#076321:1323
#076361:00530000
#0763b0:0013
#076370:00000053
#0773b0:23
#077321:1323
#077361:00530000
#0773b0:0013
#077370:00000053
#0783b0:23
#078321:13
#078361:0000002300000000
#0783b0:0000001300000000
#078370:00000023
#078321:00000013
#079361:0023000000000000
#0793b0:0013000000000000
#079370:0023
