This file was generated by Ched 2.7.0.0.
#TITLE ""
#ARTIST ""
#DESIGNER ""
#DIFFICULTY 0
#PLAYLEVEL
#SONGID ""
#WAVE ""
#WAVEOFFSET 0
#JACKET ""
#REQUEST "ticks_per_beat 480"
#00002: 4
#BPM01: 183
#00008: 01
#TIL00: ""
#HISPEED 00
#MEASUREHS 00
#00212:1300001300000000
#00215:0013000000001300
#00218:0000130000130000
#0021b:0000000000000013
#00315:0013000000000000
#00318:00130013
#00312:0000001300000000
#0041b:0000130000000013
#00412:0013
#00418:0000000000130000
#00415:00000013
#00512:0013000000000013
#00518:00130013
#00515:0000001300130000
#0051b:0013
#0111b:0000000000130000
#01115:00000013
#01118:0000130000000013
#01112:0013002300000000
#0131b:0013000000000000
#01312:0000000000130000
#01318:00000013
#01315:0000000000000013
#01418:0000130000000013
#01415:0000001300001300
#0141b:0013
#01512:0013000000000000
#0151b:0000001300000000
#01516:0013
#01519:0000000000130000
#01514:00000013
#01517:0000000000000013
#01618:0000001300000000
#0161b:00000013
#01615:0000000013000013
#01612:23
#01715:00000013
#01718:0013000000000000
#0171b:0000001300000013
#01815:00130013
#01818:0000001300130000
#01812:0000000013000013
#0181b:0000000000000013
#01918:00000013
#01915:0000000000000013
#01912:0013
#0191b:0013
#02015:0000001300000000
#02018:0013
#02017:00000013
#02012:13000013
#0201b:13
#02112:0013
#02117:0013
#02116:00000013
#0211b:00000013
#02315:00000013
#02318:0000000000000013
#02310:41
#02418:001400000000
#02414:001400
#0241a:0014
#02415:00000013
#02412:24
#0251b:0013
#02515:00000013
#0271b:0000001300000013
#02715:0013
#02718:0000000000130000
#02712:00000013
#02915:0013
#02918:00000013
#0311b:0000000000130000
#03115:00000013
#03118:0000000000000013
#03212:13000013
#03215:0000001300000000
#03315:0013000000000000
#03519:0013
#03518:00000013
#03515:13
#0351b:13
#0351a:00130000
#03514:00130000
#03513:0013
#03512:00000013
#03618:0000001300000000
#0361b:23000013
#03615:2313
#0361f:21
#03718:00000013
#03712:13000013
#03710:41
#0381b:13
#03812:00130000
#03818:0000001300000000
#03815:13
#04118:0013
#0411b:00130013
#04115:00130013
#04112:2413
#0441b:00000013
#04415:00130013
#04418:2300001300000000
#04412:23
#04718:23000013
#04712:23000013
#04918:00130013
#04915:0013
#04912:00230013
#0491a:24
#0491b:0023
#0531b:13
#05312:00130000
#0541b:1300130000130000
#05418:0000001300000013
#05412:13230023
#05415:0023
#05718:0000133300001300
#05712:0000133300001300
#05715:13
#0571b:13
#0581a:14
#05816:00140000
#05812:0014
#05918:1313
#0591b:00130013
#05912:1313
#05915:00130013
#0601a:0014
#06016:00000000000000000000001400000000
#06012:1300000000000014
#06115:00000013
#06112:0013
#0611b:13000013
#06118:0013
#06218:13
#0621b:0013
#06212:13
#06215:0013
#06210:41
#06318:1313
#06315:00130013
#06312:2323
#0631b:00230023
#06515:0013
#06518:0000000000000013
#0651b:0013
#06615:13
#0701b:13
#07018:0000001300000000
#00912:0013000000330000
#00918:00130000
#00915:0000001300000000
#0121b:0000001313000000
#01215:0000001313000013
#01212:23
#01210:41
#02612:00130000
#02812:13
#02818:00000013
#0281f:11
#02815:0000003300000000
#03915:13000013
#0391b:00000013
#04012:13
#0401a:0024
#04014:00000000000000000000002400000000
#04018:0000000000000024
#04218:13
#0421b:0000133300001300
#04212:13
#04215:0000133300001300
#0461b:13000023
#04615:00000023
#04618:0000003300000000
#0481b:13
#04812:0024
#04818:00000000000000000000002400000000
#04814:0000000000000024
#0501b:00130000
#05015:00130000
#0511b:1313
#05118:00130013
#05115:1313
#05112:00130013
#05212:0013
#05218:0000001300000000
#05215:2300000000000013
#0521b:23
#05210:41
#05518:0000001300000000
#0551b:0013000000130000
#05515:2323
#05512:00230023
#06815:0000001300000013
#0681b:13
#06818:0013
#06915:0000001300000013
#0691b:13
#06918:0013
#07315:0000000000000013
#07312:0013
#07318:0013
#0061b:1300001300000000
#00618:0013000000001300
#00615:0000130000130000
#00612:0000000000000013
#00718:0013000000000000
#00715:00130013
#0071b:0000001300000000
#00812:00130000
#00818:0013
#0081b:00000000000000000033333333330000
#02217:0013
#02212:0013
#0301b:13
#03015:00000013
#03018:0000003300000000
#0341b:13
#03412:13
#04314:0013
#04315:00000013
#04318:13
#04312:13
#04313:00130000
#04319:00130000
#0431a:0013
#0431b:00000013
#04512:00000013
#04518:00130013
#04515:2300001300000000
#0451b:23
#05612:00000013
#05618:00000013
#06712:13
#06715:0000001300000000
#07112:13
#07115:0000001300000000
#07110:41
#07418:13
#07618:0000001300000013
#07612:13
#07615:0013
#07718:0000001300000013
#07712:13
#07715:0013
#0751b:13
#07518:0000001300000000
#07218:0013
#0721b:13
#08012:1313
#08015:0013000000130000
#08018:00130013
#0801b:0000001300000013
#08112:1313
#08115:0013000000130000
#08118:00130013
#0811b:0000001300000023
#01016:0000000000000024
#0045b:0000000000000013
#00252:0000001300000000
#0025b:0000000000000013
#00352:0000001300000000
#00955:0000005300000000
#00952:00000013
#01255:0000000053000013
#01252:13
#0125b:0053
#0135b:0013000000000000
#01355:0000000000000063
#01758:0053000000000000
#0175b:0000002300000053
#01852:0000000000000013
#0185b:0000000000000013
#02455:00000053
#02555:00000063
#02652:00630000
#02852:53
#02858:00000053
#03252:53000053
#03255:0000005300000000
#03355:0053000000000000
#0365b:13
#03655:13
#03752:53
#03755:0000001300000000
#03955:63
#03952:0000001300000000
#03858:0000005300000000
#04052:53
#04258:53
#0425b:00230000
#04252:53
#04255:00230000
#0465b:53
#0475b:0000001300000000
#04758:53
#04752:53
#04755:0000001300000000
#0485b:53
#04958:00000063
#04952:00000063
#0505b:00230000
#05055:00230000
#0525b:13
#05255:13
#05252:0013
#0535b:13
#05352:00530000
#05655:00130000
#05552:00000053
#05852:0014
#06258:53
#0625b:0063
#06252:53
#06255:0063
#06052:53
#0615b:53
#0635b:00000053
#06355:00000053
#06655:53
#0685b:53
#06858:0063
#0695b:53
#06958:0063
#0705b:53
#07058:0000005300000000
#0065b:0000001300000000
#00652:0000000000000013
#0075b:0000001300000000
#00858:0053
#02057:00000053
#02052:00000053
#02156:00000063
#0215b:00000063
#02257:0053
#02252:0053
#0305b:63
#03055:00000063
#0345b:53
#03452:53
#04452:13
#04458:13
#0455b:13
#04555:13
#05755:63
#05752:00230000
#0575b:63
#05758:00230000
#06752:53
#06755:0000005300000000
#07152:63
#07155:0000006300000000
#07458:63
#07652:63
#07655:0053
#07752:63
#07755:0053
#0755b:63
#07558:0000006300000000
#0725b:53
#07258:0053
#01056:0000000000000014
#01652:13
#003350:0000000000000013
#004350:0023000000000000
#007380:0000000000000013
#008380:0023000000000000
#008380:0013
#0083b0:00000000000000000033333333332300
#009350:0000001300000000
#009320:0000000000332300
#0103a0:14
#010370:005400340000000000000000
#010390:000054340000
#010360:000000000000000000000000000054000000000000240000
#012350:0013
#012320:00000023
#0123b1:0013
#012381:00000023
#013351:0000000000000013
#014321:0023000000000000
#017381:0013000000230000
#0173b1:0000005300000000
#0173b1:0000000000000013
#018381:0023000000000000
#020321:00000013
#021361:00230000
#020370:00000013
#0213b0:00230000
#0213b0:00000013
#022370:00230000
#021361:00000013
#022321:00230000
#022321:0013
#023361:23
#022370:0013
#0233b0:23
#024350:00000013
#025320:00230000
#025350:00000013
#026320:00330000
#027350:23
#028320:13
#028350:0000003323000000
#028380:00000013
#0293b0:00230000
#0303b0:13
#030380:0000003323000000
#030350:00000013
#031320:00230000
#032320:13000033
#032350:0000003300000000
#033350:0033000000000000
#033320:0023
#0343b0:13
#034380:00000023
#034321:13
#034351:00000023
#037321:13
#037351:0000002300000000
#038381:0000001300000000
#0383b1:00000023
#039351:13
#039321:0000002300000000
#040321:13
#040351:0000002300000000
#042381:1323
#0423b1:0000333300000000
#042320:1323
#042350:0000333300000000
#0463b0:13
#046380:0000003323000000
#047380:13
#0473b0:0000002300000000
#047321:13
#047351:0000002300000000
#0483b1:13
#048381:0000002300000000
#049381:00000013
#0503b1:00530000
#050381:00000023
#049320:00000013
#050350:00530000
#050320:00000023
#053320:00130000
#053350:00000023
#055320:00000013
#056350:00230000
#057350:1323
#057320:0000333300000000
#0573b1:1323
#057381:0000333300000000
#060321:13
#060351:0000002300000000
#0613b1:13
#061381:00230000
#062381:13
#0623b1:0000002300000000
#062320:13
#062350:0000002300000000
#0623b0:0013
#062380:0000000000000023
#062351:0013
#062321:0000000000000023
#0633b1:00000013
#065381:23
#063350:00000013
#065320:23
#066350:13
#067320:33000023
#067350:0000003300000000
#0683b0:13
#068380:00230000
#068380:0013
#0683b0:00000023
#0693b0:13
#069380:00230000
#069380:0013
#0693b0:00000023
#0703b0:13000023
#070380:0000003300000000
#071320:13000023
#071350:0000003300000000
#0723b0:13
#072380:0033
#0733b0:23
#074380:13
#0753b0:33000023
#075380:0000003300000000
#076320:13
#076350:00230000
#076350:0013
#076320:00000023
#077320:13
#077350:00230000
#077350:0013
#077320:00000023
#078320:13000033
#078350:0000003300000000
#079350:0033000000000000
#079320:0023
