This file was generated by Ched 2.7.0.0.
#TITLE ""
#ARTIST ""
#DESIGNER ""
#DIFFICULTY 0
#PLAYLEVEL
#SONGID ""
#WAVE ""
#WAVEOFFSET 0
#JACKET ""
#REQUEST "ticks_per_beat 480"
#00002: 4
#BPM01: 183
#00008: 01
#TIL00: ""
#HISPEED 00
#MEASUREHS 00
#0021b:1300000000000013
#00215:0013000016130000
#00212:1300131300000000
#00218:00130013
#00318:0013000000000000
#00315:1600130016130000
#00312:0000001300001313
#0031b:0000001300001313
#00418:13131313
#0041b:0013001300130013
#00412:00000013000000130000001300001300
#00415:00130000001300000013000000130000
#00512:0000000000130000
#00515:00000000000000000000000013000013
#00518:0000000000000013
#00517:0013000000000000
#0051b:00130000
#00516:0013
#0091b:0000130000000013
#00912:00001300000013000000001300000000
#00917:0000000000130000
#00916:00000000140014001300000000000013
#0091a:14
#00919:00000013
#00914:00000000000000000000000000130000
#0111b:0013000000130000
#01119:00130000
#01117:0000001300000000
#01112:2400242400001300
#01118:00000000000000000000000000000013
#01116:0000000000141400
#01115:0000000000000013
#01216:0000001300000000
#01212:2300130013001313
#0121b:2300001300130000
#01217:0013
#01210:41
#0131b:0013000000000013
#01312:0000000000130000
#01314:00000013
#01316:0013130000000013
#01318:00000000000000130000000000000000
#01315:0013
#01317:0000000000130000
#01319:00000013
#0141b:00131313
#01418:0000000000000013
#01417:0000001300130000
#01512:0013000013000000
#01518:0000001300130013
#0151b:0013000013000000
#01515:13000000130000000000000013000013
#01617:0000001300000000
#01616:0013
#0161b:23131313
#01618:0000000000000013
#01612:2300001300000000
#01715:13000000000000130000000000000000
#01712:0013000000130000
#01714:00000013
#01716:0000000000000013
#0171b:0000001300130013
#01717:0013000000000000
#01719:00130000
#01718:0013
#01816:0013000000130000
#01814:00130013
#01817:1300001300000000
#01819:0013
#0181b:0000000000130013
#01812:0000001300000013
#01918:0000000000131300
#01912:0000130013000013
#0191b:0013000013000013
#01915:00000000000000000000001300000000
#01916:0014140000000000
#02012:1300001313001300
#0201b:13
#02016:00001313
#02019:0000000000130000
#02014:0000000000000013
#02112:13130000
#02115:0013
#02118:0000001300130000
#02114:0013000000000000
#0211b:00001313
#02117:00000013
#02212:13131313
#02216:0013
#02312:0013001300001300
#02319:0000000000000013
#02317:13000013
#02316:00130000
#02315:0013
#0231b:00131300
#02314:0000000000000013
#02310:41
#02412:001300130000
#0241b:230000001300000000130000
#02416:231414140000
#02417:00000013
#02419:0000000000000013
#0251b:13131300
#02516:00001313
#02512:00000013
#02514:0000001300130000
#02519:0013000000000000
#02616:0000130000130000
#02617:13
#0261b:1313000000000000
#02612:00001313
#02614:0000001300000000
#0271b:0013001300000000
#02717:0013
#02718:0000000000130000
#02719:00000013
#0271a:0000000000000013
#02712:13001300000013000013000000000000
#02713:00000000000000000000001300000000
#02714:00000000000000000000000000130000
#02715:00000000000000000000000000000013
#02815:0000001300000000
#02818:00000013000000001300000000000000
#02812:23130013
#0281b:23000000130000000000130000000013
#02817:00000000000000000000000000130000
#0281f:11
#02912:00131313
#0291b:00001313
#02916:13
#02915:00000000000013000000000000130013
#02918:0000000000130013
#03118:00000000000013000000000000130013
#0311b:00131313
#03112:00001313
#03117:13
#03115:0000000000130013
#0341b:1313000000000000
#03417:00130013000000000000000000000000
#0341a:0000131300000000
#03416:00000000001300130000000000000000
#03419:0000000013130000
#03415:00000000000000000013001300000000
#03418:0000000000001313
#03414:00000000000000000000000000130013
#0361b:0000001300001300
#03617:0013
#03615:0000001200120012
#03612:24131313
#0361a:24
#0361f:21
#03712:13131313
#03717:13000013
#03715:0000001200120012
#03710:41
#03817:13000000000000000013000000000000
#03812:13131313
#03815:0000001200120012
#0381b:0000001300000000
#04012:1300131323000023
#04017:0013
#0401b:13000000000000000000002300000000
#04116:14141414
#04112:0013130000131300
#0411b:2300001313000013
#0421b:1313
#04219:0000001300000000
#04217:00130000
#04212:0000143400001300
#04216:14000014
#04412:23000000130013130000000013000000
#0441b:1313
#04416:0000000000141414
#04417:0000001300000000
#0461b:1300001300002300
#04618:0000000013130000
#04612:1300130000130000
#04615:0000000000002313
#0471b:0013000013001300
#04715:00000000000000000013000000130000
#04718:2300000000130013
#04712:23000000230029000000001300000013
#04815:13
#04812:00000013000000002400000000001400
#0481b:13
#04817:00000013000000000000000000000000
#0481a:0000000014000024
#04816:00000000000000000000142400000000
#04916:00130013
#04917:0013
#04914:0018001800180000
#0491a:14240024
#04912:2424
#05016:00140000
#05012:00130000
#05015:0000000000000013
#05018:00000000000000000000000000000013
#0521b:0000000013000013
#05212:2c001c1300001c00
#05217:0000001313000000
#05216:0000000000000013
#05210:41
#05316:13130000
#05317:00000013
#05315:0000000000000013
#05312:13130000
#05318:00000000000000000000000000000013
#05418:0000161300000013
#05412:13261329
#0541b:13000013
#05415:0000000029130000
#05512:16291323
#0551b:00130013
#05518:26000000000013000000001300000000
#05515:00001300000000132900130000000000
#05618:0000000013130000
#05615:0000000000001313
#05612:0013
#0561b:00000013
#05717:00000013
#05716:1400130000130000
#05712:1313
#05714:0000001300000000
#0571a:0000143400000000
#0571b:0000000000000013
#05812:1313
#05817:00131300
#05816:0013000000001300
#0581b:0000001300000000
#0591b:13131300
#05914:00000014
#05912:1300130013140000
#05918:00000000000013000000000000140000
#05915:00000000000000130000000000000000
#05916:00001400000000000000001400001400
#0591a:00000000000000000000000000000014
#06512:0000001313000013
#06515:0000130000130000
#06518:0013000000001300
#06516:1414
#0651b:1300000000000013
#06612:13
#0661b:13131300
#06617:0013
#06619:00000013
#06816:1400000014000018
#06812:0000131813000000
#0681b:13000013
#07112:14000013
#07116:14000014000000000014000000000000
#07115:00000000000000000000000000130013
#07118:0000000000000013
#0711a:0000001400000000
#07110:41
#08012:12
#08014:0012000000000000
#08016:00121200
#08018:0000001200120000
#0801a:00000012
#0801c:0000000000000012
#03912:1300131313001300
#0391b:13000013
#03917:0000001300000000
#03916:00000000000000000000120000000012
#03918:00000000000000000000001200001200
#0431b:1313
#04312:00130013
#04318:0013000000130000
#04315:0000001300000013
#0511b:13131313
#05112:13131313
#05118:00001300001300000000130000130013
#05115:00000013000013000013001300001300
#0701a:1400000000141400
#07016:1414001414001414
#07012:0000141400000000
#08112:12
#08118:00120000000000000000000000000000
#08119:00000012000000000012000000000000
#08114:0000120000120000
#08113:0012000012000000
#0811a:00000000001200000000001200000000
#08115:0000001200001200
#0811b:00000000000000120000000000000000
#08116:0000000000000022
#0811c:0000000000000022
#00612:1300000000000013
#00618:0013000000130000
#0061b:1300131300000000
#00615:00131613
#00715:1613000016000000
#00718:0000130000130000
#0071b:0000001300001313
#00712:0000001300001300
#00817:0013000000000000
#00816:00000000130000000014140014001400
#0081b:00130000
#00812:00000000000000001400000000140000
#0081a:00000000000000000000001400000000
#03018:0000001300000000
#03015:00000013000000001300000000000000
#0301b:23130013
#03012:23000000130000000000130000000013
#03016:00000000000000000000000000130000
#03218:0013002600130013
#03215:00131300
#0321b:23000023
#03212:2600002300002600
#03315:13130013
#03318:0026001300130013
#0331b:0023
#03312:0023000026000000
#03517:1313000000000000
#03513:00130013000000000000000000000000
#03516:0000131300000000
#03512:00000000001300130000000000000000
#0351b:0013
#03515:00000013
#0451b:23000000130013130000000013000000
#04512:1313
#04516:0000001300141414
#0601a:1414
#06016:0014281400142814
#06012:28142814
#0611a:1414
#06116:0014281400142814
#06112:28142814
#06216:00001400001400140000140000140014
#0621a:00140014000000000014001400000000
#06212:2c0014142c001414
#06210:41
#06316:0000140014001414
#0631a:00240024
#06312:2c00000024000024
#0641a:0014000000140000
#06416:00141414
#06412:0000131400001314
#0641b:0013
#06716:14141400
#06712:0000001400001400
#0671a:00000014
#06714:0014000000140014
#06718:0000001400000000
#06916:1400000014000018
#06912:0000131813000000
#0691b:13000013
#0731b:0000001313000013
#07318:0000130000130000
#07315:0013000000001300
#07316:1414
#07312:1300000000000013
#0741b:13
#07412:13131300
#07416:0013
#07414:00000013
#07616:1400001814000000
#0761b:00131300
#07612:1300000000001318
#07212:2314000013140000
#07216:00141414
#0721a:0000001400000014
#0721b:13130013
#07516:14141400
#0751a:0000001400001400
#07512:00000014
#07518:0014000000140014
#07514:0000001400000000
#07716:1400001814000000
#0771b:00131300
#07712:1300000000001318
#0781a:14000014
#07812:1300001400131300
#07814:0013000000000013
#0781b:0000131300000000
#07816:00130000
#07819:0013
#07817:0000000000130000
#0791b:1313000000000000
#07916:1313
#07912:0014001300000000
#07919:00000000130000000000001300000000
#07917:00000000000013000000000000000013
#0791a:00000000000000000013000000000000
#07915:0000000000130000
#07918:00000000000000000000000000130000
#07914:00000013
#07913:0000000000000013
#01012:24242424
#01016:0000000000000024
#00452:0000000000000013
#0045b:0000000000000013
#00252:0000001300000000
#0025b:0000000000000013
#00352:0000001300000000
#01252:1300000000000013
#01257:0053
#0125b:1300000000230000
#0135b:0013000000000053
#0175b:0000000000000053
#01752:0013000000000000
#01852:0000000000000013
#0185b:0000000000000013
#01857:23
#02256:0023
#02457:00000053
#02552:00000053
#02656:00530000
#02657:23
#0365a:14
#03652:14
#03757:53
#0375b:0000001300000000
#0395b:63
#03957:0000001300000000
#0385b:0000005300000000
#03857:53000000000000000023000000000000
#0405b:63
#04452:13
#0445b:53
#04752:0000001900000000
#04758:53
#0475b:0023000000000000
#0485b:53
#04857:00000023000000000000000000000000
#04852:00000023000000000000000000000000
#04956:00000053
#04952:1414
#0495a:00140014
#05052:00230000
#05056:00240000
#05252:1c
#05257:0013
#05356:13530000
#05655:00130000
#05658:00130000
#0555b:00000053
#05552:00000053
#05852:5313
#05857:00535300
#05856:0023000000000000
#0585b:0000002300000000
#06652:53
#06657:0023
#0665b:13
#0685b:53
#06852:0063
#06856:1414
#07152:5400003400000000
#07156:14000024000000000024000000000000
#0715a:0000006400004400
#0065b:0000001300000000
#00652:0000000000000013
#0075b:0000001300000000
#00852:0013000000000000
#0085b:00130000
#00856:0000000000000054
#0095a:24
#00952:0000005300000000
#00956:0023
#0155b:0013000000000000
#01552:0013000000000000
#0205b:53
#02056:00005353
#02059:0000000000230000
#0215b:00000053
#03258:0000004600000000
#03252:36000036
#03358:0046000000000000
#03352:0036
#0355b:0053
#0415b:1313
#04152:00130013
#0425b:13
#04256:54
#04252:00240000
#04552:63
#0455b:13
#0465b:53
#05752:1353
#05756:6400000000230000
#0575a:00240000
#05757:00000053
#0575b:0000000000000023
#06052:1818
#06056:00180018
#06152:1818
#06156:00180018
#06352:1c
#06356:0000000000000014
#06556:1414
#06456:0014
#06756:14
#06752:0000001400000000
#0675a:00000014
#06956:1414
#0695b:53
#06952:0063
#07056:1400001400001400
#0745b:63
#07452:13
#07456:0023
#07656:1414
#07652:63
#0765b:0053
#07256:0014
#0725b:13
#07356:1414
#07556:14
#0755a:0000001400000000
#07552:00000014
#07756:1414
#07752:63
#0775b:0053
#0785a:14000014
#07852:0000001400000000
#07952:0014000000000000
#01152:0000001400000000
#01056:0000000000000014
#01652:13
#0165b:13
#0023b0:0000001300230000
#002320:0000000000000013
#003320:0023000000000000
#005320:0013002300000000
#005360:00330000
#005371:0000001300230000
#0053b1:0033
#006321:0000001300230000
#0063b1:0000000000000013
#0073b1:0023000000000000
#007321:0000000000000013
#008321:0023000000000000
#008361:0000000000000014
#0093a1:54
#009361:0024000000000000
#009321:0000001300230000
#009361:0053
#0103a1:140054340000
#010361:000054000000340000000000000054000000000000240000
#012371:0000000013003323
#0123b1:0000000000530000
#0133b1:0000000000000013
#014371:0023000000000000
#014320:0013003300330000
#014360:00333323
#016320:0000000000132300
#0173b0:0000000000000013
#018370:53
#0183b0:0023000000000000
#0203b0:13
#020360:0000002300000000
#020360:00001333
#020390:0000000000530000
#0213b0:00230000
#0213b0:00000013
#022360:00230000
#022360:0013
#0233b0:23
#024370:00000013
#025320:00230000
#025320:00000013
#026370:53
#026320:00230000
#026361:00130000
#0273b1:23
#0293a1:00000014240000000000000000000000
#031321:00000014240000000000000000000000
#0353b1:0013
#035381:00000023
#037371:13
#0373b1:0000002300000000
#038371:13
#0383b1:00230000
#0383b1:0000001300002300
#038371:00000000000000000053000000000000
#0393b1:13
#039371:00230000
#0403b1:13
#040371:0000002300000000
#040361:00000000000000000000142400000000
#040361:00000000000000000000000000142400
#042361:1424
#042321:0000343400000000
#043351:1323000000000000
#043381:0000132300000000
#043351:0000000013230000
#043381:0000000000001323
#0443b1:13
#044371:00230000
#045321:13
#045361:00230000
#0463b1:13
#046371:00230000
#046351:00000000000000132300000000000000
#047381:13230000
#0473b1:0053000000000000
#0483b1:1300002300000000
#048371:00000053000000000000000000000000
#048320:00000013000000000000000000000000
#048360:0000002300000000
#049360:00000013
#050320:00530000
#050360:00000023
#050361:00140000
#0503a1:00000024
#053361:00130000
#0533b1:00000023
#0553b1:00000013
#056381:00230000
#055320:00000013
#056350:00230000
#057360:1424
#0573a0:0000343400000000
#057321:00001323
#057361:0000000000530000
#057370:00000013
#0573b0:0000000000000053
#058370:23
#058321:13230000
#058361:0053000000000000
#058370:00133300
#0583b0:0000005300002300
#066320:13
#066370:0053
#067320:23
#0683b0:13
#068370:00230000
#068320:0013
#068360:00000023
#0693b0:13
#069370:00230000
#069320:0013
#069360:00000023
#071320:1400002400000000
#071360:00000054000000000000000000000000
#0713a1:0000001400002400
#071361:00000000000000000054000000000000
#0743b1:13
#074361:0053
#0753b1:23
#076321:13
#076361:00230000
#0763b1:0013
#076371:00000023
#077321:13
#077361:00230000
#0773b1:0013
#077371:00000023
