This file was generated by Ched 2.7.0.0.
#TITLE ""
#ARTIST ""
#DESIGNER ""
#DIFFICULTY 0
#PLAYLEVEL
#SONGID ""
#WAVE ""
#WAVEOFFSET 0
#JACKET ""
#REQUEST "ticks_per_beat 480"
#00002: 4
#BPM01: 183
#00008: 01
#TIL00: ""
#HISPEED 00
#MEASUREHS 00
#0021a:1414
#00214:00140000
#00312:1414
#00318:00140000
#0041a:14
#00414:00140000
#00418:0014
#00412:00000014
#00612:1414
#00618:00140000
#0071a:1414
#00714:00140000
#00812:14
#00818:00140000
#00814:0014
#0081a:00000014
#0121a:14
#01214:00140000
#01218:0014
#01212:00000014
#01210:41
#01318:14
#01314:00140000
#0131a:0014
#01412:14
#01418:00140000
#01414:0014
#0141a:00000014
#01514:14
#01518:00140000
#01512:0014
#0161a:14
#01614:00140000
#01712:14
#01718:00140000
#01818:14
#01814:00140000
#01914:14
#01918:00140000
#0281a:1414
#02814:00140014
#0281f:11
#02918:1414
#02912:00140014
#0301a:1414
#03014:00140014
#03118:1414
#03112:00140014
#0321a:14
#03218:0000003400003400
#03412:00000014
#03518:14
#03513:00140000
#03519:0014
#03514:00000014
#03614:0014
#03618:00000014
#0361a:24
#0361f:21
#03712:14
#03718:0014
#03714:00000014
#03710:41
#0381a:14
#03814:0014
#03818:00000014
#03912:14
#03918:0014
#03914:00000014
#0421a:14
#04214:00140000
#04218:0014
#04212:00000014
#0431a:14
#04318:00343434
#04412:0014
#04418:24000014
#04514:14000014
#0451a:0014
#04618:14000014
#04612:0014
#04714:14000014
#0471a:0014
#04818:14
#04812:00140000
#0481a:0014
#04814:00000014
#04918:14
#04912:00140000
#0491a:0014
#04914:00000014
#05018:14
#0501a:00343400
#05112:14
#05118:00140000
#05114:0014
#0511a:00000014
#05412:14
#05418:00140000
#05414:0014
#0541a:00000014
#05512:14
#05518:00140000
#05514:0014
#0551a:00000014
#05712:14
#05718:00140000
#05714:0014
#0571a:00000014
#0591a:14
#05914:00140000
#05918:0014
#05912:00000014
#0601a:1414
#06014:00140014
#06118:1414
#06112:00140014
#0631a:14
#06314:00140000
#06318:0014
#06312:00000014
#06415:0000000000140000
#0661a:14
#06617:00000014
#06814:14
#06812:00000014
#07018:14
#0701a:00000014
#07212:14
#07215:00000014
#0741a:14
#07417:00000014
#07614:14
#07612:00000014
#07818:14
#0781a:00000014
#08012:14
#08018:00140000
#08014:0014
#0801a:00000014
#08112:14
#08118:00140000
#08114:0014
#0811a:00000024
#05813:2424
#05819:00240000
#03318:0034000000000000
#02310:41
#05210:41
#06210:41
#07110:41
#0325a:54
#03358:0014
#0365a:14
#03752:14
#0385a:14
#03952:14
#0435a:54
#04458:14
#04554:14
#04658:14
#04754:14
#05058:54
#06352:00000054
#06455:0000000000240000
#0665a:64
#06657:00000024
#06854:64
#06852:00000024
#07058:54
#0705a:00000024
#07252:54
#07255:00000024
#0745a:64
#07457:00000024
#07654:64
#07652:00000024
#07858:54
#0785a:00000024
#0053a0:1424
#009320:1424
#0103a0:14240000
#010340:00001424
#011380:14240000
#011320:00001424
#016380:00001424
#017340:00001424
#0183a0:00001424
#019320:00001424
#0203a0:14
#021380:34
#0223a0:34
#023380:24
#024320:14
#025340:34
#026320:34
#027340:24
#0323a0:14
#032380:0000003400003400
#033380:0034000024000000
#0403a0:14240000
#040340:00001424
#041380:14240000
#041320:00001424
#0433a0:14
#043380:00343434
#044380:24
#050380:14
#0503a0:00343424
#052320:14240000
#052380:00001424
#053340:14240000
#0533a0:00001424
#056320:14
#056340:00240000
#0563a0:0014
#056380:00000024
#0623a0:14
#062380:00240000
#062320:0014
#062340:00000024
#063320:00000014
#064350:0000000000540000
#065320:0024
#0663a0:14
#066370:00000054
#0673a0:0024
#068340:14
#068320:00000054
#069340:0024
#070380:14
#0703a0:00000054
#071380:0024
#072320:14
#072350:00000054
#073320:0024
#0743a0:14
#074370:00000054
#0753a0:0024
#076340:14
#076320:00000054
#077340:0024
#078380:14
#0783a0:00000054
#079380:0024
