This file was generated by Ched 2.6.4.0.
#TITLE ""
#ARTIST ""
#DESIGNER "hard"
#DIFFICULTY 0
#PLAYLEVEL
#SONGID ""
#WAVE ""
#WAVEOFFSET 0
#JACKET ""
#REQUEST "ticks_per_beat 480"
#00002: 4
#BPM01: 78
#BPM02: 80
#BPM03: 103
#BPM04: 108
#BPM05: 123
#BPM06: 135
#BPM07: 100
#00208: 00010300
#00408: 00020400
#00008: 0504
#00508: 0005
#00608: 0006
#00108: 0007
#TIL00: ""
#HISPEED 00
#MEASUREHS 00
#00918:14
#01014:14
#01114:14
#05018:14
#05114:14
#05218:14
#00614:0014
#00718:14
#00714:0014
#00818:14
#00810:41
#01218:14
#01314:14
#01418:14
#01514:14
#0161a:14
#01610:41
#01712:14
#0181a:14
#01912:14
#0201a:14
#02114:14
#02218:14
#02312:14
#02310:41
#02418:14
#0241f:11
#02512:14
#0261a:14
#02714:14
#03218:2616
#0321f:21
#03312:1616
#03310:41
#03418:16
#03412:0016
#03518:16
#03512:0016
#03618:2616
#03712:1616
#03818:16
#03812:0016
#03918:16
#03912:0016
#04012:0016
#04018:26
#04010:41
#04218:0016
#04212:26
#04418:2616
#04512:1616
#04618:16
#04612:0016
#04718:16
#04712:0016
#04710:41
#04818:16
#04912:16
#0003a0:00000000000000140000000000000000
#0013a0:0024
#002320:0014
#003320:0024
#004380:0014
#005380:0024
#028380:14
#029380:24
#030340:14
#031340:24
#041380:1626
#043320:1626
#053340:1434
#054340:34
#055340:24
