This file was generated by Ched 2.6.4.0.
#TITLE ""
#ARTIST ""
#DESIGNER ""
#DIFFICULTY 0
#PLAYLEVEL
#SONGID ""
#WAVE ""
#WAVEOFFSET 0
#JACKET ""
#REQUEST "ticks_per_beat 480"
#00002: 4
#BPM01: 78
#BPM02: 80
#BPM03: 103
#BPM04: 108
#BPM05: 123
#BPM06: 135
#BPM07: 100
#00208: 00010300
#00408: 00020400
#00008: 0504
#00508: 0005
#00608: 0006
#00108: 0007
#TIL00: ""
#HISPEED 00
#MEASUREHS 00
#0241f:11
#0241b:00000000000000130000000000000000
#02417:00000013
#02412:0000000000130000
#02415:00001300001300000000000000000000
#02418:00130000
#0381b:00001313
#03812:00001300000000000000001300000000
#03818:0000001300130000
#03815:00000000130000000013000000000000
#03819:0000000000000013
#03814:0000000000000013
#04618:00000000000000000013000000001300
#04612:0000001313001300
#0461b:00001300000000000000001300000000
#04615:0000000000130000
#04617:0000001300000000
#04614:00130000
#04619:00130000
#04616:0013000000000000
#02818:0000001300000000
#02815:00130000
#02812:0000000023002424
#0281b:0023
#0281a:0000000000002424
#04112:000000000000001300000000000000000000000000130000
#04117:000000000000001300000000000000000000000000130000
#0411b:000000130000000000000013000000000000130000000000
#04116:000000130000000000000013000000000000130000000000
#03116:2412
#03118:00120000
#04912:1200000000002424
#04916:0000000014140000
#04917:0012121200000000
#0491a:0000000000002424
#05412:2316
#05418:0016
#0541b:23
#05212:0013000000001313
#05218:0013001300000000
#05217:0000000000130000
#0521b:1300130013000013
#05215:130000000000130000000013000000000000000000000000
#0501b:0013000013000000
#05018:00000000130000000000001300000000
#05015:0000001313000000
#05012:00000000000000000000001300000000
#0511b:0013
#05118:0000001300001300
#05115:00000000130000000000001300000000
#05112:0013000000000013
#0471b:13132323
#04712:1300130000230023
#04718:0000001300230023
#04715:0013000023002300
#04710:41
#04316:0013000000000000
#04312:0000130000000013
#0451b:00001300000000000000131300000000
#04518:00000000130000131300000000001300
#04512:00000013000000001300000000000000
#04515:00130000001300000000001300000000
#04412:00001300000000000000131300000000
#04415:00000000130000131300000000001300
#0441b:00000013000000001300000000000000
#04418:00130000001300000000001300000000
#04212:00000013001300000000001300000000
#04215:0013
#04218:00000000000000000000131300000000
#0421b:00001300000000131300000000001300
#04217:00130000
#04216:00130000000000000000000000000000
#0401b:00000013001300000000001300000000
#04018:0013
#04015:00000000000000000000131300000000
#04012:24001300000000131300000000001300
#04016:00130000
#04017:00130000000000000000000000000000
#0401a:24
#04010:41
#03718:00000013000000001300000000000000
#0371b:00130000001300000000001300000000
#03712:00001300000000130000000000001300
#03715:0000130000130000
#03615:00000013000000001300000000000000
#03612:00130000001300000000001300000000
#0361b:00001300000000130000000000001300
#03618:0000130000130000
#03318:00130000001300000000001300000000
#03312:0000130000130013
#0331b:00000013000000001300000000000000
#03315:00001300000000130000000000000000
#03310:41
#03215:00130000001300000000001300000000
#0321b:2300130000130013
#03212:00000013000000001300000000000000
#03218:00001300000000130000000000000000
#0321f:21
#0061b:00131313
#00612:13001313
#00619:0000000000130013
#00614:0000000000130013
#00318:0013000000000013
#0031b:13
#00315:00130013
#00312:0000001300000000
#05318:0013000000000013
#05314:00130013
#0531a:0000001300130000
#05312:0013
#05319:00230023
#0531b:0023
#05315:0023000000000023
#05313:0000002300230000
#04814:0000000000000012
#04816:00000012
#04818:0000000000120000
#0481a:0012
#0481c:0000001200000000
#04812:2c
#02612:0013000000000013
#0261b:1300001300130000
#02512:00000000001300000000000000130000
#02515:00000013000000000000130000000000
#02516:13
#02518:00130013
#02517:00000000000000130000000000000000
#0251b:0013000000000000
#02717:0013000000130000
#02716:00130000
#0271b:0013
#02712:0013000000002424
#0271a:0000000000002424
#0221b:0013000000000013
#02212:1300001300130000
#0131b:00001300000000130000000013000000
#01316:0000000000000013
#01312:0013000000130000
#01315:13000000001300000000000000000000
#01318:00130000
#00812:2413000013000000
#00815:00000000130000000000001300000000
#00818:0000001313000000
#0081b:00000000000000000000001300000000
#0081a:24
#00810:41
#00018:00000000003333000000001300000013
#00012:00000000000000130000000013000000
#0001a:00000033000000000000000000000000
#00019:00330000
#00218:0013
#0021b:1300001300000000
#00212:0000001313000000
#00217:0013000000000000
#0011b:0000001313001300
#00118:00130000
#00115:000000130000000000000000000000000013000000000013
#00112:13
#00415:000000000000001300000000130000000000000000000000
#00412:1300001300000000
#0041b:0000001313000000
#00418:00130000
#00417:00000013
#01517:0012121212120000
#01518:0000000000002424
#01514:00000000000000000000000000240000
#01015:0013001300000000
#01016:0000000000130013
#01012:130000000000130000000000130000000000000000000013
#01018:130000000000130000000013000000000000000000000000
#0101b:0013000000000000
#00912:0013
#00915:0000001300001300
#00918:00000000130000000000001300000000
#0091b:0013000000000013
#02012:00000000000000130000000000000000
#02016:00000013
#0201b:0000000000130000
#02018:00001300001300000000000000000000
#02015:00130000
#0211b:00000000001300000000000000130000
#02118:00000013000000000000130000000000
#02117:13
#02115:00130013
#02116:00000000000000130000000000000000
#02112:0013000000000000
#01915:0000000000001323
#01918:00000000000000000000000000130000
#0191b:00000000000000000000001300000000
#01912:0000000000130000
#01917:0012121212000000
#01717:13000000000000000000000000130000
#01712:00000000000000130000000013000000
#01715:0013130000000000
#01718:00000013001300000000000000000000
#0171b:0000000000130000
#0161b:00000000000000130000130013000000
#01616:0000000000131300
#01615:00000000001300000000000000000000
#01618:00130000
#01612:0013000000000000
#01610:41
#01217:0000000000131300
#01212:00000000000000130000130013000000
#01218:00000000001300000000000000000000
#01215:00130000
#0121b:0013000000000000
#03912:2300001323000000
#03916:00130013
#0391b:0013230000002300
#03917:1313
#01119:00130013
#0111b:0013
#01117:13
#01112:000000000000000000000000000000000000000000000013
#01113:001300000000000000001300
#01114:000000000013000000000000000000000013000000000000
#01115:000000001300001300000000
#01116:000000000000000000000013000000000000000000000000
#01118:0023000000000023
#0111a:0000002300230000
#03414:0000000000000013
#03412:00001313
#03419:0000000000000013
#0341b:00001300000000000000001300000000
#03415:0000001300130000
#03418:00000000130000000013000000000000
#0301b:0013
#03012:00001324
#03015:0000001300000000
#03018:00130000
#03019:0000000000000023
#03014:0000000000000023
#0301a:00000024
#02912:0000130000002424
#0291b:00130000
#0291a:0000000000002424
#02914:0000002400240000
#02918:0024
#02316:0013000000130000
#02317:00130000
#02312:0013
#0231b:0013000000000000
#02318:0000000000002424
#02314:00000000000000000000000000240000
#02310:41
#01812:0000000000130013
#01818:0000130000130013
#01815:0013001300001300
#0181b:0013001300000000
#0141b:0000000000130013
#01415:0000130000130013
#01418:0013001300001300
#01412:0013001300000000
#00718:0000000000140014
#00712:24131414
#0071b:00130000
#00714:0000000000240024
#0071a:24002424
#00516:00000013
#00512:0013
#00517:00130000
#0051b:13
#02954:1400001400140000
#02958:1414
#05054:14
#0505b:0000000063000013
#05055:0000000063000013
#05058:14000000000000000000006300000000
#05052:00000000000000000000006300000000
#03054:14
#03058:14
#02854:14
#02858:14
#03555:0000000000000013
#03558:0000000000000013
#04552:0000000063000013
#04555:00000000005300000000005300000000
#04558:0000000000000013
#0445b:0000000053000013
#04458:00000000006300000000006300000000
#04455:0000000000000013
#04255:0000000053000013
#04252:00000000006300000000006300000000
#0425b:0000000000000013
#03758:0000000063000013
#0375b:00000000005300000000005300000000
#03752:0000000000000013
#03655:0000000053000013
#03652:00000000006300000000006300000000
#0365b:0000000000000013
#0335b:0000000053000013
#03358:00000000006300000000006300000000
#03352:0000000000000013
#03252:0000000063000013
#03255:00000000005300000000005300000000
#0325b:0000000000000013
#00852:0000000053000013
#00858:0000000053000013
#00855:00000000000000000000005300000000
#0085b:00000000000000000000005300000000
#04058:0000000063000013
#0405b:00000000005300000000005300000000
#04052:0000000000000013
#03952:5300001353000013
#0395b:0013630000136300
#03956:00000053
#03957:0063
#05452:2366
#0545b:23
#05458:0056
#04852:1c
#01955:0000000000000033
#02358:0000000000000044
#01558:0000000000000044
#0075a:44
#00752:34
#0415b:000000530000000000000063000000000000000000000000
#04156:000000530000000000000063000000000000000000000000
#04152:000000000000005300000000000000000000000000000000
#04157:000000000000005300000000000000000000000000000000
#05257:0000000000230000
#0525b:0053
#0515b:0063
#0245b:00000000000000630000000000000000
#02457:00000053
#02552:00000000000000000000000000630000
#02557:00000000000000630000000000000000
#01356:0000000000000013
#0135b:00000000000000630000000000000000
#00052:00000000000000630000000063000000
#0015b:00005353
#00252:0063
#00257:0023000000000000
#0025b:63
#01056:0000000000230000
#01052:0063
#00952:0053
#00452:53
#00457:00000053
#0045b:0053
#02052:00000000000000530000000000000000
#02056:00000063
#0215b:00000000000000000000000000530000
#02156:00000000000000530000000000000000
#01757:00000000000000000000000000130000
#01752:00000000000000530000000000000000
#01656:00000063
#01257:00000053
#00652:63
#00556:00000063
#00552:0063
#00557:00530000
#0055b:53
#0003b0:0013000000000000
#0003a0:00000033000000000000000000000000
#000390:00330000
#000380:00000000003333000000000000000000
#000370:00000000000000230000000000000000
#000321:00000000000000130000000000000000
#000351:00000000000000000000002300000000
#000321:00000013
#000351:00000000000000000000000000000023
#0013b1:0013
#001381:000000000000000000000000000000000023000000000000
#0013b1:00000013
#001381:000000000000000000000000000000000000000000000023
#0023b1:13230000
#002371:0053000000000000
#002321:0000000013003333
#002351:000000000000000000000000000000000033000033000033
#003321:23
#0033b1:0000000013332300
#003381:000000000000000000000000000033000033000000000000
#004321:13
#004351:00230000
#0043b1:0013
#004371:00000033
#0053b1:3323
#005371:00330000
#005320:0013
#005360:00000033
#006320:33
#006360:00230000
#008320:0000000013000023
#008350:00000000000000000000003300000000
#008381:0000000013000023
#0083b1:00000000000000000000003300000000
#009321:0013
#009351:00000000000000000000002300000000
#010321:00001323
#010361:0000000000530000
#012371:00000013
#0133b1:23
#0133b1:00000000000000130000000000000000
#013371:0000000000230000
#016361:00000013
#017321:23
#017321:00000000000000130000000000000000
#017361:0000000000230000
#020321:00000000000000130000000000000000
#020361:0000000000230000
#020361:00000013
#021321:23
#021361:00000000000000130000000000000000
#021321:0000000000230000
#0213b1:00000000000000000000000000130000
#022371:23
#022321:0013000000000000
#022351:00230000
#022380:00130000
#0223b0:0000002300000000
#022380:0000000000130000
#0223b0:00000023
#022321:00000013
#022351:0000000000000023
#023321:00130000
#023361:0000002300000000
#0233b0:0000001300230000
#023370:0033
#0243b0:00000000000000130000000000000000
#024370:0000000000230000
#024370:00000013
#0253b0:23
#025370:00000000000000130000000000000000
#0253b0:0000000000230000
#025320:00000000000000000000000000130000
#026360:23
#0263b0:0013000000000000
#026380:00230000
#026351:00130000
#026321:0000002300000000
#026351:0000000000130000
#026321:00000023
#0263b0:00000013
#026380:0000000000000023
#0273b0:00130000
#027370:0000002300000000
#027321:0000001300230000
#027361:0033
#027321:0000000000000014
#027341:00000000000000000000000000000054
#028341:24
#0273a0:0000000000000014
#027380:00000000000000000000000000000054
#028380:24
#028320:0000000000000014
#028340:00000000000000000000000000000054
#029340:24
#0283a1:0000000000000014
#028381:00000000000000000000000000000054
#029381:24
#029321:0000000000000014
#029341:00000000000000000000000000000054
#030341:24
#0293a0:0000000000000014
#029380:00000000000000000000000000000054
#030380:24
#032350:00000000001300000000000000000000
#032320:00000000000000230000000000000000
#032320:0013
#032350:0000000000230000
#032350:00000000000000000000001300000000
#032320:0000000000000023
#033380:00000000001300000000000000000000
#0333b0:00000000000000230000000000000000
#0333b0:0013
#033380:0000000000230000
#033380:00000000000000000000001300000000
#0333b0:0000000000000023
#0353b0:13
#035380:00532300000000000000000000000000
#035351:0013000000000000
#035321:00000053230000000000000000000000
#0353b0:00130000
#035380:00000000005323000000000000000000
#035351:0000001300000000
#035321:00000000000000532300000000000000
#035380:0013
#0353b0:00000000000000000053230000000000
#035351:00000000000000000000130000532300
#035321:00000000000000000000005333000000
#0353b0:00000013
#035380:00000000000000000000000000532300
#036320:00000000001300000000000000000000
#036350:00000000000000230000000000000000
#036350:0013
#036320:0000000000230000
#036320:00000000000000000000001300000000
#036350:0000000000000023
#0373b0:00000000001300000000000000000000
#037380:00000000000000230000000000000000
#037380:0013
#0373b0:0000000000230000
#0373b0:00000000000000000000001300000000
#037380:0000000000000023
#039320:13
#039360:0023000000000000
#0393b0:00130000
#039370:0000002300000000
#039320:0013
#039360:0000000000230000
#039371:0013
#0393b1:0000000000230000
#0393b1:00000013
#039371:0000000000000023
#039360:00000013
#039320:0000000000000023
#0403b0:00000000001300000000333300000000
#040380:00000000000000333300000000002300
#041360:000000130000000000000033000000000000000000000000
#041320:000000000000003300000000000000230000000000000000
#0413b1:000000130000000000000033000000000000000000000000
#041371:000000000000003300000000000000230000000000000000
#042321:00000000001300000000333300000000
#042351:00000000000000333300000000002300
#0433b1:0013002300000000
#043371:00330000
#043360:0000001323000000
#043391:0000000013230000
#043340:0000000000132300
#043371:0000000000001323
#044381:00000000001300000000333300000000
#0443b1:00000000000000333300000000002300
#045351:00000000001300000000333300000000
#045321:00000000000000333300000000002300
#049321:0000000000000014
#049341:00000000000000000000000000000054
#050341:24
#0493a0:0000000000000014
#049380:00000000000000000000000000000054
#050380:24
#0503b0:0000000013000023
#050380:00000000000000000000003300000000
#050351:0000000013000023
#050321:00000000000000000000003300000000
#0513b1:0013
#051381:00000000000000000000002300000000
#0523b1:00001323
#052371:0000000000530000
#054321:1356
#055321:23
#0543b0:13
#054380:0056
#0553b0:23
