This file was generated by Ched 2.6.4.0.
#TITLE ""
#ARTIST ""
#DESIGNER "hard"
#DIFFICULTY 0
#PLAYLEVEL
#SONGID ""
#WAVE ""
#WAVEOFFSET 0
#JACKET ""
#REQUEST "ticks_per_beat 480"
#00002: 4
#BPM01: 78
#BPM02: 80
#BPM03: 103
#BPM04: 108
#BPM05: 123
#BPM06: 135
#BPM07: 100
#00208: 00010300
#00408: 00020400
#00008: 0504
#00508: 0005
#00608: 0006
#00108: 0007
#TIL00: ""
#HISPEED 00
#MEASUREHS 00
#00615:0000000000130013
#00618:13001313
#00612:13
#00912:0013001300000013
#00918:00131300
#00815:0013001300000000
#0081b:00131300
#00818:00000000000000000000001300000000
#0081a:24
#00812:24
#00810:41
#01418:0013000000001300
#0141b:0000001300000000
#01415:0000130000000013
#01412:0000000000130000
#01519:0012001200120000
#01515:00121200
#01514:0000000000002424
#01518:00000000000000000000000000240000
#01915:0012001200000000
#01919:00121200
#01914:0000000000141424
#01918:00000000000000000000001400140000
#02818:0000001300000000
#02815:00132300
#0281a:00000024
#02812:00000024
#04819:0000001200120012
#04815:00001212
#04812:24
#0481a:24
#0011b:00130013
#00115:0000001300000000
#00112:0013000000000000
#00118:0013
#00218:13
#0021b:0000000000000013
#00215:0013
#00412:13
#0041b:0013
#00415:0013
#01018:13
#01015:0013000000000013
#0101b:00131300
#01012:0000001300000000
#0111b:13130000
#01118:00001313
#01115:0023002300000000
#01112:0000000000230023
#01315:0013000000001300
#01312:0000000000000013
#0131b:00000000000000130000000000001300
#01318:00000000133300000000000000000000
#0031b:0000001300000013
#00318:0013000000001300
#00315:1300130000130000
#00312:0013
#02318:0014000000002424
#02314:00000000140000000000000000240000
#0231a:0000001400000000
#02316:0014
#02312:0000000000140000
#02310:41
#0431b:0013
#04318:0000130000130000
#04312:0000000000000013
#04315:0013001300001300
#02115:00000013
#02118:00000000000000000000000000130000
#0211b:00000000000000130000000000000000
#02018:0013000000001300
#02012:00000000003300000000000000000000
#0341b:0013000000000000
#03415:0000130000330000
#03418:0000001300000000
#03412:0013
#03414:00000000000000000033000000000000
#03416:00000000000000000000003333000000
#0001b:00000013
#00018:00000000003333130000000000000000
#00019:00330000
#0001a:00000033000000000000000000000000
#00518:13
#00512:13
#00515:0013
#0051b:0013
#0121b:13000013
#01215:0013000000000000
#01218:00130000
#01212:00000000000013330000000000000000
#01815:0013000000001300
#01812:0000001300000000
#01818:0000130000000013
#0181b:0000000000130000
#01715:00000013
#01718:00001300000000000000000000130000
#0171b:00000000000000130000000000000000
#01719:00000033000000000000000000000000
#0171a:00330000
#01618:0013000000000000
#01612:00000013
#01615:00130000
#0161b:00000000000013330000000000000000
#01610:41
#02212:0013000000000000
#02218:0000130000130000
#02215:0000001300001300
#0221b:0000000000000013
#02714:0014000000000000
#02718:00140000
#02712:0000001400002400
#02716:0014
#0271a:0000000000142400
#02518:00000013
#02515:00000000000000000000000000130000
#02512:00000000000000130000000000000000
#02415:0013000000001300
#0241f:11
#0241b:00000000003300000000000000000000
#0261b:0013000000000000
#02615:0000130000130000
#02618:0000001300001300
#02612:0000000000000013
#03015:0000001300000000
#03018:0000130013000024
#03014:00000024
#03118:00130000
#03115:0013
#0311a:24
#03112:24
#03318:0013000013000000
#0331b:00000000001300000000001300000000
#03315:00130000
#03310:41
#03512:00130000
#0351b:13
#03515:00000013
#03518:0013
#03812:0013000000000000
#03818:0000130000330000
#03815:0000001300000000
#0381b:0013
#03819:00000000000000000033000000000000
#03817:00000000000000000000003333000000
#04012:0013000000000000
#04018:23000000130000130000130000000000
#04015:00000000001300001300001300000000
#04010:41
#04915:12
#04919:0013000000000000
#04914:00130000
#0491a:0000001300002400
#04913:0013
#0491b:0000000000130000
#04912:00000024
#0511b:0013001300000013
#05115:00131300
#05018:0000001300000000
#05012:00131300
#05015:00000000000000000000001300000000
#05215:13
#05218:0013000000000013
#05212:00131300
#0521b:0000001300000000
#05418:0013
#05415:0013
#0541b:23
#05412:23
#05315:0013001300130023
#05318:00131323
#03215:0013000013000000
#03218:00130000
#03212:00000000001300000000001300000000
#0321b:23
#0321f:21
#0421b:0013000000000000
#04215:00000000130000130000130000000000
#04218:00000000001300001300001300000000
#03612:0013000013000000
#0361b:00130000
#03615:00000000001300000000001300000000
#03618:13
#0371b:0013000013000000
#03712:00130000
#03718:00000000001300000000001300000000
#04715:0000001300000000
#0471b:13
#04712:0013000000240000
#04718:00130024
#0471a:0024
#04714:0000000000000024
#04710:41
#0461b:0013000000000000
#04618:00130000
#04615:0000001300130000
#04612:0013
#04614:00000000000000000033003300000000
#0441b:00001300000000000000001300000000
#04412:00130000
#04415:00000000000000130000130000000000
#04418:00000000001300001300000000000000
#04512:00001300000000000000001300000000
#0451b:00130000
#04518:00000000000000130000130000000000
#04515:00000000001300001300000000000000
#00712:23
#0071b:23
#00714:00002424
#00718:0000000000240024
#0291a:00000024
#02912:00000024
#02918:0000002400240000
#02914:0024
#03918:2323
#03915:00230023
#04119:000000000000003300000000000000000000000000000000
#04852:14
#0485a:14
#00858:00000000000000000000006300000000
#0085b:0000000063000013
#00958:0063
#00158:0053
#0015b:00000063
#00258:53
#00255:0063
#00452:53
#0045b:0063
#00455:0063
#01954:0000000000000014
#0005b:00000063
#00058:00000000000000530000000000000000
#00652:53
#00658:53
#00558:23
#00552:23
#00555:0023
#0055b:0023
#0105b:0053
#0125b:00000063
#01252:0000005300000000
#01358:00530000
#0135b:00000000000000630000000000001300
#01352:0000000000000013
#01554:0000000000000014
#01652:00000053
#0165b:0000006300000000
#01758:00005300000000000000000000130000
#0175b:00000000000000630000000000000000
#02058:00000053
#0215b:00000000000000630000000000000000
#02358:0000000000000014
#02455:00000063
#02552:00000000000000530000000000000000
#0285a:14
#02852:14
#0305a:14
#03052:14
#0295a:14
#02952:14
#03452:0053
#03552:00530000
#0355b:63
#03555:00000063
#03558:0053
#0385b:0063
#0505a:14
#05052:1400000053000013
#05055:00000000000000000000005300000000
#05155:0053
#05252:0063
#05458:0023
#05455:0023
#0545b:63
#05452:53
#03252:00000000005300000000005300000000
#03255:0000000063000013
#04055:00000000000000000000006300000000
#04052:0000000000000013
#04258:00000000000000000000005300000000
#0425b:0000000000000013
#0335b:00000000006300000000006300000000
#03358:0000000053000013
#03758:00000000005300000000005300000000
#0375b:0000000063000013
#03655:00000000006300000000006300000000
#03652:0000000053000013
#04652:0053
#04655:0000000000230000
#0445b:00000000000000000000006300000000
#04458:0000000000000013
#04552:00000000000000000000005300000000
#04555:0000000000000013
#0003b0:0013000000003300
#0003a0:00000033000000000000000000000000
#000390:00330000
#000380:00000000003333330000000000000000
#001380:23
#001380:0013
#0013b0:00000033
#002380:33
#0023b0:00230000
#002350:0013
#002320:00000023
#004320:13
#004350:00230000
#0043b0:0013
#004380:00000023
#004351:0013
#004321:00000023
#005321:13
#005351:00230000
#005380:13
#0053b0:00230000
#0053b0:0013
#005380:00000023
#005351:0013
#005321:00000023
#006321:13
#006351:00230000
#006380:13
#0063b0:00230000
#0083b0:0000000013000023
#008380:00000000000000000000003300000000
#009380:0013
#0093b0:00000023
#0103b0:0013
#010380:00000023
#012320:00000000000013330000000000000000
#012350:0000000000230000
#0123b0:00000013
#013380:23
#013380:00000000133300000000230000000000
#0133b0:00000000000000330000000000000000
#0163b0:00000000000013330000000000000000
#016380:0000000000230000
#016320:00000013
#017350:23
#017380:0013000000230000
#017390:00000033000000000000000000000000
#0173a0:00330000
#0173b0:00000000003300330000000000000000
#020320:00000000133300000000230000000000
#020350:00000000000000330000000000000000
#020380:00000013
#0213b0:23
#021320:0013000000000000
#021330:00000033000000000000000000000000
#021340:00330000
#021350:00000000002300000000000000000000
#0213b0:00000000000000130000000000000000
#021380:0000000000230000
#0243b0:00000000133300000000230000000000
#024380:00000000000000330000000000000000
#024350:00000013
#025320:23
#0253b0:0013000000000000
#0253a0:00000033000000000000000000000000
#025390:00330000
#025380:00000000002300000000000000000000
#025320:00000000000000130000000000000000
#025350:0000000000230000
#0273a0:00000014
#027380:0000000000000034
#0283a0:24
#027321:00000014
#027341:0000000000000034
#028321:24
#0283a1:00000014
#028381:0000000000000034
#0293a1:24
#028320:00000014
#028340:0000000000000034
#029320:24
#0293a0:00000014
#029380:0000000000000034
#0303a0:24
#029321:00000014
#029341:0000000000000034
#030321:24
#032321:00000000001300000000333300000000
#032351:00000000000000333300000000002300
#0333b1:00000000001300000000333300000000
#033381:00000000000000333300000000002300
#034321:0013
#034341:00000000000000000033000000000000
#034351:0000000000330000
#034361:00000000000000000000003333002300
#0353b1:13
#035381:0023000000000000
#035321:00130000
#035351:0000002300000000
#035381:0013
#0353b1:0000000000230000
#035351:00000013
#035321:0000000000000023
#036351:00000000001300000000333300000000
#036321:00000000000000333300000000002300
#037381:00000000001300000000333300000000
#0373b1:00000000000000333300000000002300
#0383b1:0013
#038391:00000000000000000033000000000000
#038381:0000000000330000
#038371:00000000000000000000003333002300
#039321:13
#039351:0023000000000000
#039380:13
#0393b0:0023000000000000
#0393b0:00130000
#039380:0000002300000000
#039351:00130000
#039321:0000002300000000
#039321:0013
#039351:0000000000230000
#039380:0013
#0393b0:0000000000230000
#0393b0:00000013
#039380:0000000000000023
#039351:00000013
#039321:0000000000000023
#040351:00000000000000000000001300000000
#040321:0000000000000023
#0413b1:0013000000000000
#041391:000000000000003300000000000000000000000000000000
#041381:000000000000000000000033000000230000000000000000
#041351:0000000000001323
#042381:00000000000000000000001300000000
#0423b1:0000000000000023
#0443b1:00000000000000000000001300000000
#044381:0000000000000023
#045321:00000000000000000000001300000000
#045351:0000000000000023
#046321:0000000013003323
#046341:00000000000000000033003300000000
#046351:0000000000330000
#0493a1:00000014
#049381:0000000000000034
#0503a1:24
#049320:00000014
#049340:0000000000000034
#050320:24
#050320:0000000013000023
#050350:00000000000000000000003300000000
#051350:0013
#051320:00000023
#052320:0013
#052350:00000023
#054320:13
#054350:0053
#055320:23
#0543b1:13
#054381:0053
#0553b1:23
