This file was generated by Ched 2.6.4.0.
#TITLE ""
#ARTIST ""
#DESIGNER "master"
#DIFFICULTY 0
#PLAYLEVEL
#SONGID ""
#WAVE ""
#WAVEOFFSET 0
#JACKET ""
#REQUEST "ticks_per_beat 480"
#00002: 4
#BPM01: 78
#BPM02: 80
#BPM03: 103
#BPM04: 108
#BPM05: 123
#BPM06: 135
#BPM07: 100
#00208: 00010300
#00408: 00020400
#00008: 0504
#00508: 0005
#00608: 0006
#00108: 0007
#TIL00: ""
#HISPEED 00
#MEASUREHS 00
#00216:00001313
#00212:130000000000000000000000000000000000000000000000000000000013000000000000000000000000000000000000
#00218:000000130000003300000000000000000000000000000000
#00214:0000001300000013
#0021b:000000000000000000003333000000000013000000000000
#00217:000000000000000000000000000000000000000000000013
#00219:000033000013
#0021a:0000003300000000
#00412:13
#0041b:1313
#00417:00000013
#00416:000000130000001200000000130000000000000000000000
#00414:0000001300000013
#00419:0000001300000000
#00418:00120000
#0051b:1300000000130000
#00517:00130000
#00512:0013000013000000
#00516:13000013
#00612:13001313
#00617:13001313
#0061b:0000130000130013
#00616:0000000000130013
#00619:0013000000000000
#00716:000000000000001300000000140000140000140000140000
#0071b:00130000
#00719:001300
#00714:0000001300000000
#00717:000000000013000000000000
#00712:260000000000000000000013000000240000000000240000
#00718:26
#0071a:00002424
#0101b:0000130013000013
#01018:000000000000000000000013000000000000000000000000
#01012:0000000013000013
#01016:1300000000130000
#01014:000000000000000000000000000000000000000000000013
#01015:0000001300000000
#01017:000000000000000000000000000000000000000000000000000000000000000000000000000000000000000000000000000000000000000000000000000000000000000000000000000000000000000000000000000000000000000000000000000000000000000000000000000000000000000000000000000000000000000000000000000000000000000000000000000000000000000000000000000000000000000000000000000000000000000000000000000000000000000000000000000000000000000000000000000000000000000000000000000000000000000000000000000000000000000000000000000000000000000000000000000000000000000000000000000000000000000000000000000000000000000000000000000000000000000000000000000000000000000000000000000000000000000000000000000000000000000000000000000000000000000000000000000000000000000000000000000000000000000000000000000000000000000000000000000000000000000000000000000000000000000000000000000000000000000000000000000000000000000000000000000000000000000000000000000000000000000000000000000000000000000000000000000000000000000000000000000000000000000000000000000000000000000000000000000000000000000000000000000000000000000000000000000000000000000000000000000000000000000000000000000000000000000000000000000000000000000000000000000000000000000000000000000000000000000000000000000000000000000000000000000000000000000000000000000000000000000000000000000000000000000000000000000000000000000000000000000000000000000000000000000000000000000000000000000000000000000000000000000000000000000000000000000000000000000000000000000000000000000000000000000000000000000000000000000000000000000000000000000000000000000000000000000000000000000000000000000000000000000000000000000000000000000000000000000000000000000000000000000000000000000000000000000000000000000000000000000000000000000000000000000000000000000000000000000000000000000000000000000000000000000000000000000000000000000000000000000000000000000000000000000000000000000000000000000000000000000000000000000000000000000000000000000000000000000000000000000000000000000000000000000000000000000000000000000000000000000000000000000000000000000000000000000000000000000000000000000000000000000000000000000000000000000000000000000000000000000000000000000000000000000000000000000000000000000000000000000000000000000000000000000000000000000000000000000000000000000000000000000000000000000000000000000000000000000000000000000000000000000000000000000000000000000000000000000000000000000000000000000000000000000000000000000000000000000000000000001300000000000000000000000000000000000000000000000000000000000000000000000000000000000000000000000000000000000000000000000000000000000000000000000000000000000000000000000000000000000000000000000000000000000000000000000000000000000000000000000000000000000000000000000000000000000000000000000000000000000000000000000000000000000000000000000000000000000000000000000000000000000000000000000000000000000000000000000000000000000000000000000000000000000000000000000000000000000000000000000000000000000000000000000000000000000000000000000000000000000000000000000000000000000000000000000000000000000000000000000000000000000000000000000000000000000000000000000000000000000000000000000000000000000000000000000000000000000000000000000000000000000000000000000000000000000000000000000000000000000000000000000000000000000000000000000000000000000000000000000000000000000000000000000000000000000000000000000000000000000000000000000000000000000000000000000000000000000000000000000000000000000000000000000000000000000000000000000000000000000000000000000000000000000000000000000000000000000000000000000000000000000000000000000000000000000000000000000000000000000000000000000000000000000000000000000000000000000000000000000000000000000000000000000000000000000000000000000000000000000000000000000000000000000000000000000000000000000000000000000000000000000000000000000000000000000000000000000000000000000000000000000000000000000000000000000000000000000000000000
#00812:2613001300130000
#0081b:0000130013000013
#00817:00001300000013000000001300000000
#00816:00000000130000001300000000130000
#00818:26
#00810:41
#01217:00001300000000130000000000000000
#01216:00000000131300000000130000001300
#01212:00001300000000130000000013000000
#0121b:0000000000130013
#01517:0012121212120000
#01514:00121200
#0151a:0012001200120000
#01512:13000000000000000000000000260000
#0151b:13
#01515:0000000000000026
#01518:00000026
#01917:0012121212000000
#01912:1300000000140000
#0191a:00000000120000001200001400000000
#01918:00000000000000000000000000140000
#01914:0012001200001400
#0191b:13
#01916:0000000000000024
#0291b:0013000000000000
#02916:000000130000000000280000000000280014000000000000
#02912:000000000000130014000000280000000000240000240000
#02917:00130000
#0291a:0000000000002424
#03415:00000013160000000000130013000000
#03412:13000000001316001300000000001300
#03417:13
#03418:00001600000000000013001300001300
#0341b:00001313
#01112:000013000000000000000000000013000000000000000013
#01114:000000000013000000000013000000000013000000000000
#01116:000000240000000013000000000000240000000013000000
#01118:14141414
#0111b:000000000000000000000000000000000000000000000013
#0111a:0000002400000024
#04317:0013000000000000
#0431b:1313
#04312:1300000000000013
#04318:0000000000130000
#04315:00000013
#04118:000000000000000000000000000000140000000013000000
#04115:000000000000001300000000
#0411b:1313000000001300
#04114:0000000000000014
#04112:130000000000000000000013000000000000130000000000
#04117:000000000000001300000000000000000000000000000000
#04116:0013000000000000
#04916:00140000
#04913:00000000001a0000
#04914:0018
#04915:0000001600000000
#04917:0012000000000000
#04912:0000000000002424
#0491a:0000000000002424
#00912:13001300000013000000001300001300
#00917:0000000013000000000000001300000000000013000000001300000000000000
#0091b:0000130013000013
#00916:00131300
#00017:00000000000013000013000013000000
#00012:00000000000000130000001300000013
#0001b:0000000013000000000000000000130000000000000000000000001300000000
#00016:00000013000000000000000000000000
#00019:00130000
#00014:00000000001300000000000000000000
#0011b:130000000000000000000000000000000013000000000013
#00118:0013000000000000
#00115:00130000
#00112:000000000000000000000000000000000000130000000000130000000000000000000000000000000013000000000000
#00117:0013
#00116:000000000000000000000000000000000000000000000000000000000013000000000000130000000000000000000000
#00312:130000000000000000000000130013000000000000130000
#0031b:1300001313001300
#00317:0000000000130000
#00316:000000000000000000000000000000000013000000000000
#00315:0013000000000000
#00318:00130000
#01317:1300130000000013
#0131b:00001300001300130000000013000000
#01316:00000000001300130000000013000000
#01312:0000000000130013
#0141b:1313
#01419:0012000000000000
#0141c:00120000
#01412:13001312
#01417:0012000000120000
#01414:00120000
#01415:0000000000120000
#0141a:00000012
#0201b:13000000131300000000130000001300
#02012:13001300000000130000000013000000
#02017:0013000000001300
#02016:0000130000000013
#02112:13001300000000130000000000130000
#02115:00000013000000000000000013000000
#02118:00000000130000000000000000130000
#0211b:00000000001300000000130013000000
#02116:0000000000000000000000000000000000130000000000000000000000000000
#02717:0013000000000000
#02712:0013001300132424
#0271b:00131300
#02714:18
#0271a:0000000000002424
#0281b:0000130000130000
#02816:000000000000130000140000000000000014000000000000
#02812:000000130000000013000000240000130000240000240000
#02817:0013000000000000
#0281a:0000000024002424
#03012:0013001313002c00
#0301b:0013130013000000
#03018:000000000013000000130000000000000000000000000000
#03015:000000131300000000000000
#03016:000000000000000000000000000014140014000000000000
#03014:0000000000000028
#03516:14130000140000001413000014000000
#0351a:0014000000140000
#03512:1300001413000014
#0351b:00130013
#03517:00000000001300000000000000130000
#03217:00000000001300001300001300000000
#03212:23000000130000130000130000130000
#03218:2313000000000000
#03215:00130000000000000000000000000000
#0321b:00000013000000000000000000001300
#0321f:21
#0391b:23130000
#03916:1400140000131413
#03912:0014001423001300
#0391a:0000000000140014
#03917:0013001300000000
#04612:14000000001300000013000013000000
#0461a:14
#0461b:00000013000000001300000000001300
#04618:0000000000131300
#04615:00001600160016001300001300001300
#0471a:140000140000000000001300
#04716:00140014001400142400000000000000
#04712:000000140000000000140000000000000000000000000013
#04714:000000000000000000000000000000000013280000000000
#04718:000000000000001300000000
#04713:000000000000002a
#04715:0000000000260000
#04710:41
#0531a:1400120012000022
#05312:1412000000120000
#05316:0000001200002200
#05318:0000002200001200
#05314:0000220022000012
#0531c:0022000000220000
#0331b:13000000130000130000130000130000
#03315:1313000000000000
#03316:00000000001300001300001300000000
#03318:00130000000000000000000000000000
#03312:00000013000000000000000000001300
#03310:41
#03712:13000000130000130000130000130000
#03718:13000013000000000000000000000000
#0371b:00130000001300001300001300000000
#03717:0000000000000013
#03715:0013000000000000
#01616:00001300000000130000000000000000
#01617:00000000131300000000130000001300
#0161b:13001300000000130000000013000000
#01612:1300000000130013
#01610:41
#01718:00130000
#01712:00001300001300130000000013130000
#01717:00000000000000130000000013130000
#0171b:00000000001300000000130000000000
#01716:13
#01715:00000013000000000000000000000000
#01812:1300001413001400
#0181b:1313
#01816:0014000000140000
#0181a:0000140000000014
#0221b:1300130013130000
#02212:1313001313001300
#02217:0013000000001300
#02216:0000130000130013
#02314:18
#02317:0013001300130000
#02316:00131300
#02312:0013000000002600
#02315:0000000000000026
#02318:00000000000000000000000000260000
#02310:41
#02412:13000000131300000000130000001300
#0241b:13001300000000130000000013000000
#02416:0013000000001300
#02417:0000130000000013
#0241f:11
#0251b:13001300000000130000000000130000
#02518:00000013000000000000000013000000
#02515:00000000130000000000000000130000
#02512:00000000001300000000130013000000
#02517:0000000000000000000000000000000000130000000000000000000000000000
#02612:1300130013130000
#0261b:1313001313001300
#02616:0013000000001300
#02617:0000130000130013
#03117:00121200
#03116:24
#03612:00130000001300001300001300000000
#0361b:23000000130000130000130000130000
#03616:0000000000000013
#03618:0013000000000000
#03615:23000013000000000000000000000000
#03818:00000013000016000000130013000000
#0381b:13000000001300001300000000001300
#03816:13
#03812:0016000013001300
#03815:00000000160000000013001300001300
#0441b:13000013001300000000001300000000
#04417:0000000013000013
#04415:00130000000000000000000000000000
#04418:0013000000000000
#04416:0000130000130000
#04412:13000000000000130000000000130000
#04017:00000000000000130000000000130000
#04012:00130000000000001300000000001300
#04015:0013000000000000
#04018:00000013000000000000000000000000
#0401b:0000130000130000
#04016:24000000001300000000001300000000
#04010:41
#04217:00000000001300000000001300000000
#04216:14000000000000130000000000130000
#0421b:00130000000000001300000000001300
#04218:0013000000000000
#04215:00000013000000000000000000000000
#04212:0000130000130000
#04512:13000013001300000000001300000000
#04516:0000000013000013
#04518:00130000000000000000000000000000
#04515:0013000000000000
#04517:0000130000130000
#0451b:13000000000000130000000000130000
#05212:0000130013000013
#05215:000000000000000000000013000000000000000000000000
#0521b:0000000013000013
#05217:1300000000130000
#05218:0000001300000000
#05216:000000000000000000000000000000000000000000000000000000000000000000000000000000000000000000000000000000000000000000000000000000000000000000000000000000000000000000000000000000000000000000000000000000000000000000000000000000000000000000000000000000000000000000000000000000000000000000000000000000000000000000000000000000000000000000000000000000000000000000000000000000000000000000000000000000000000000000000000000000000000000000000000000000000000000000000000000000000000000000000000000000000000000000000000000000000000000000000000000000000000000000000000000000000000000000000000000000000000000000000000000000000000000000000000000000000000000000000000000000000000000000000000000000000000000000000000000000000000000000000000000000000000000000000000000000000000000000000000000000000000000000000000000000000000000000000000000000000000000000000000000000000000000000000000000000000000000000000000000000000000000000000000000000000000000000000000000000000000000000000000000000000000000000000000000000000000000000000000000000000000000000000000000000000000000000000000000000000000000000000000000000000000000000000000000000000000000000000000000000000000000000000000000000000000000000000000000000000000000000000000000000000000000000000000000000000000000000000000000000000000000000000000000000000000000000000000000000000000000000000000000000000000000000000000000000000000000000000000000000000000000000000000000000000000000000000000000000000000000000000000000000000000000000000000000000000000000000000000000000000000000000000000000000000000000000000000000000000000000000000000000000000000000000000000000000000000000000000000000000000000000000000000000000000000000000000000000000000000000000000000000000000000000000000000000000000000000000000000000000000000000000000000000000000000000000000000000000000000000000000000000000000000000000000000000000000000000000000000000000000000000000000000000000000000000000000000000000000000000000000000000000000000000000000000000000000000000000000000000000000000000000000000000000000000000000000000000000000000000000000000000000000000000000000000000000000000000000000000000000000000000000000000000000000000000000000000000000000000000000000000000000000000000000000000000000000000000000000000000000000000000000000000000000000000000000000000000000000000000000000000000000000000000000000000000000000000000000000000000000000000000000000000000000000000000000000000000000000000000000000000001300000000000000000000000000000000000000000000000000000000000000000000000000000000000000000000000000000000000000000000000000000000000000000000000000000000000000000000000000000000000000000000000000000000000000000000000000000000000000000000000000000000000000000000000000000000000000000000000000000000000000000000000000000000000000000000000000000000000000000000000000000000000000000000000000000000000000000000000000000000000000000000000000000000000000000000000000000000000000000000000000000000000000000000000000000000000000000000000000000000000000000000000000000000000000000000000000000000000000000000000000000000000000000000000000000000000000000000000000000000000000000000000000000000000000000000000000000000000000000000000000000000000000000000000000000000000000000000000000000000000000000000000000000000000000000000000000000000000000000000000000000000000000000000000000000000000000000000000000000000000000000000000000000000000000000000000000000000000000000000000000000000000000000000000000000000000000000000000000000000000000000000000000000000000000000000000000000000000000000000000000000000000000000000000000000000000000000000000000000000000000000000000000000000000000000000000000000000000000000000000000000000000000000000000000000000000000000000000000000000000000000000000000000000000000000000000000000000000000000000000000000000000000000000000000000000000000000000000000000000000000000000000000000000000000000000000000000000000000000000
#0501b:0013001300130000
#05012:0000130013000013
#05016:00001300000013000000001300000000
#05017:00000000130000001300000000130000
#0511b:13001300000013000000001300001300
#05112:0000130013000013
#05116:0000000013000000000000001300000000000013000000001300000000000000
#05117:00131300
#05412:22000000000000000000000000000000000000000000000000000000000000000000000000000000000000000000000000000000000000000000000000000000000000000000000000000000000000000000000000000000000000000000000000000000000000000000000000000000000000000000000000000000000000000000000000000000000000000000000000000000000000000000000000000000000000000000000000000000000000000000000000000000000000000000000000000000000000000000000000000000000000000000000000000000000000000000000000000000000000000000000000000000000000000000000000000000000000000000000000000000000000000000000000000000000000000000000000000000000000000000000000000000000000000000000000000000000000000000000000000000000000000000000000000000000000000000000000000000000000000000000000000000000000000000000000000000000000000000000000000000000000000000000000000000000000000000000000000000000000000000000000000000000000000000000000000000000000000000000000000000000000000000000000000000000000000000000000000000000000000000000000000000000000000000000000000000000000000000000000000000000000000000000000000000000000000000000000000000000000000000000000000000000000000000000000000000000000000000000000000000000000000000000000000000000000000000000000000000000000000000000000000000000000000000000000000000000000000000000000000000000000000000000000000000000000000000000000000000000000000000000000000000000000000000000000000000000000000000000000000000000000000000000000000000000000000000000000000000000000000000000000000000000000000000000000000000000000000000000000000000000000000000000000000000000000000000000000000000000000000000000000000000000000000000000000000000000000000000000000000000000000000000000000000000000000000000000000000000000000000000000000000000000000000000000000000000000000000000000000000000000000000000000000000000000000000000000000000000000000000000000000000000000000000000000000000000000000000000000000000000000000000000000000000000000000000000000000000000000000000000001c1c0000000000000000000000000000000000000000000000000000000000000000000000000000000000000000000000000000000000000000000000000000000000000000000000000000000000000000000000000000000000000000000000000000000000000000000000000000000000000000000000000000000000000000000000000000000000000000000000000000000000000000000000000000000000000000000000000000000000000000000000000000000000000000000000000000000000000000000000000000000000000000000000000000000000000000000000000000000000000000000000000000000000000000000000000000000000000000000000000000000000000000000000000000000000000000000000000000000000000000000000000000000000000000000000000000000000000000000000000000000000000000000000000000000000000000000000000000000000000000000000000000000000000000000000000000000000000000000000000000000000000000000000000000000000000000000000000000000000000000000000000000000000000000000000000000000000000000000000000000000000000000000000000000000000000000000000000000000000000000000000000000000000000000000000000000000000000000000000000000000000000000000000000000000000000000000000000000000000000000000000000000000000000000000000000000000000000000000000000000000000000000000000000000000000000000000000000000000000000000000000000000000000000000000000000000000000000000000000000000000000000000000000000000000000000000000000000000000000000000000000000000000000000000000000000000000000000000000000000000000000000000000000000000000000000000000000000000000000000000000000000000000000000000000000000000000000000000000000000000000000000000000000000000000000000000000000000000000000000000000000000000000000000000000000000000000000000000000000000000000000000000000000000000000000000000000000000000000000000000000000000000000000000000000000000000000000000000000000000000000000000000000000000000000000000000000000000000000000000000000000000000000000000000000000000000000000000000000000000000000000000000000000000000000000000000000000000000000000000000000000
#0541c:22
#04812:2c
#00256:0053
#00252:630000000000000000000000000000000000000000000000000000000023000000000000000000000000000000000000
#00258:0023000000000000
#00452:53
#0045b:0053
#00457:00000053
#00456:0023000023000000
#0055b:5300000000230000
#00557:00530000
#00552:0023000063000000
#00556:00000063
#00652:63
#00656:00130000
#0065b:00130000
#01052:0063
#01056:0000000000230000
#0105b:0053
#01057:000000000000000000000000000000000000000000000000000000000000000000000000000000000000000000000000000000000000000000000000000000000000000000000000000000000000000000000000000000000000000000000000000000000000000000000000000000000000000000000000000000000000000000000000000000000000000000000000000000000000000000000000000000000000000000000000000000000000000000000000000000000000000000000000000000000000000000000000000000000000000000000000000000000000000000000000000000000000000000000000000000000000000000000000000000000000000000000000000000000000000000000000000000000000000000000000000000000000000000000000000000000000000000000000000000000000000000000000000000000000000000000000000000000000000000000000000000000000000000000000000000000000000000000000000000000000000000000000000000000000000000000000000000000000000000000000000000000000000000000000000000000000000000000000000000000000000000000000000000000000000000000000000000000000000000000000000000000000000000000000000000000000000000000000000000000000000000000000000000000000000000000000000000000000000000000000000000000000000000000000000000000000000000000000000000000000000000000000000000000000000000000000000000000000000000000000000000000000000000000000000000000000000000000000000000000000000000000000000000000000000000000000000000000000000000000000000000000000000000000000000000000000000000000000000000000000000000000000000000000000000000000000000000000000000000000000000000000000000000000000000000000000000000000000000000000000000000000000000000000000000000000000000000000000000000000000000000000000000000000000000000000000000000000000000000000000000000000000000000000000000000000000000000000000000000000000000000000000000000000000000000000000000000000000000000000000000000000000000000000000000000000000000000000000000000000000000000000000000000000000000000000000000000000000000000000000000000000000000000000000000000000000000000000000000000000000000000000000000000000000000000000000000000000000000000000000000000000000000000000000000000000000000000000000000000000000000000000000000000000000000000000000000000000000000000000000000000000000000000000000000000000000000000000000000000000000000000000000000000000000000000000000000000000000000000000000000000000000000000000000000000000000000000000000000000000000000000000000000000000000000000000000000000000000000000000000000000000000000000000000000000000000000000000000000000000000000000000000000000000000002300000000000000000000000000000000000000000000000000000000000000000000000000000000000000000000000000000000000000000000000000000000000000000000000000000000000000000000000000000000000000000000000000000000000000000000000000000000000000000000000000000000000000000000000000000000000000000000000000000000000000000000000000000000000000000000000000000000000000000000000000000000000000000000000000000000000000000000000000000000000000000000000000000000000000000000000000000000000000000000000000000000000000000000000000000000000000000000000000000000000000000000000000000000000000000000000000000000000000000000000000000000000000000000000000000000000000000000000000000000000000000000000000000000000000000000000000000000000000000000000000000000000000000000000000000000000000000000000000000000000000000000000000000000000000000000000000000000000000000000000000000000000000000000000000000000000000000000000000000000000000000000000000000000000000000000000000000000000000000000000000000000000000000000000000000000000000000000000000000000000000000000000000000000000000000000000000000000000000000000000000000000000000000000000000000000000000000000000000000000000000000000000000000000000000000000000000000000000000000000000000000000000000000000000000000000000000000000000000000000000000000000000000000000000000000000000000000000000000000000000000000000000000000000000000000000000000000000000000000000000000000000000000000000000000000000000000000000000000000000
#0085b:0000000063000063
#00857:00000000000000000000006300000000
#00852:36
#00858:46
#00057:00000000000000000023000053000000
#0005b:0000000000000000000000000000530000000000000000000000002300000000
#0095b:0063
#00957:0000000000000000000000000000000000000023000000000000000000000000
#00752:36
#00758:46
#01956:0000000000000034
#00152:000000000000000000000000000000000000000000000000630000000000000000000000000000000023000000000000
#00156:000000000000000000000000000000000000000000000000000000000023000000000000630000000000000000000000
#01156:0014000000140000
#0115a:0000001400000014
#0135b:00000000000000230000000000000000
#01357:0000000000000013
#0145c:00220000
#01459:0052001200000000
#01457:0062001200520012
#01454:00220000
#01455:0000000000620012
#01452:00000022
#0145a:00000022
#02052:00001300000000230000000013000000
#0205b:00000000006300000000000000002300
#02057:00000000000000130000000053000000
#02752:0053005300000000
#0275b:00636300
#0355a:0044000000440000
#03552:5300003453000034
#03556:00230000000000000023000000000000
#0355b:00630063
#03557:00000000002300000000000000230000
#03257:00000000005300005300005300000000
#03252:00000000330000330000330000000000
#0325b:0000000000000043
#0395b:53530000
#0395a:0000000000440044
#03957:0053005300000000
#03952:0034003463006300
#03956:0000000000630063
#04158:0000000000440000
#04154:0000000000000034
#04157:000000000000006300000000000000000000000000000000
#04156:0053000000000000
#0475a:64640000
#04756:00240024002400241400000000000000
#04752:0054005400000000
#04753:000000000000001a
#04754:00000018
#04755:0000000000160000
#01256:0000000000000023
#0125b:0000000000630000
#01252:00000053
#01752:00000000000000230000000000130000
#01657:0000000000000023
#01652:0000000000530000
#0165b:00000063
#01856:0034000000440000
#01852:0000003400003400
#0185a:0000440000000044
#02156:0000000000000000000000000000000000230000000000000000000000000000
#02152:00000000000000630000000000000000
#0215b:00000000005300000000000000000000
#0245b:00001300000000230000000013000000
#02452:00000000005300000000000000002300
#02456:00000000000000130000000063000000
#02557:0000000000000000000000000000000000230000000000000000000000000000
#0255b:00000000000000530000000000000000
#02552:00000000006300000000000000000000
#02357:0053005300530000
#02356:00636300
#02355:0000000000000036
#01555:0000000000000046
#02652:0000530000530013
#02656:0063001300006300
#0225b:0000630000630013
#02257:0053001300005300
#02956:0000004800480000
#02952:0038
#02958:44
#02954:34
#0285a:0044
#02852:0034
#02858:44
#02854:34
#03356:00000000006300006300006300000000
#0335b:00000000430000430000430000000000
#03352:0000000000000033
#03652:00000000005300005300005300000000
#0365b:00000000430000430000430000000000
#03656:0000000000000033
#0375b:00000000006300006300006300000000
#03752:00000000330000330000330000000000
#03757:0000000000000043
#0445b:00000000006300000000006300000000
#04457:0000000053000043
#04456:0000330000330000
#04452:00000000000000330000000000000000
#0405b:0000430000430000
#04057:00000000000000430000000000000000
#04052:0000000053000033
#04056:00000000006300000000006300000000
#04257:00000000005300000000005300000000
#04252:0000330000330000
#04256:00000000000000330000000000000000
#0425b:0000000063000043
#0435b:0013
#04358:0000000000130000
#04355:00000013
#04352:0000000000000013
#04552:00000000005300000000005300000000
#04556:0000000063000033
#04557:0000430000430000
#0455b:00000000000000430000000000000000
#0525b:0053
#05257:0000000000230000
#05252:0063
#05256:000000000000000000000000000000000000000000000000000000000000000000000000000000000000000000000000000000000000000000000000000000000000000000000000000000000000000000000000000000000000000000000000000000000000000000000000000000000000000000000000000000000000000000000000000000000000000000000000000000000000000000000000000000000000000000000000000000000000000000000000000000000000000000000000000000000000000000000000000000000000000000000000000000000000000000000000000000000000000000000000000000000000000000000000000000000000000000000000000000000000000000000000000000000000000000000000000000000000000000000000000000000000000000000000000000000000000000000000000000000000000000000000000000000000000000000000000000000000000000000000000000000000000000000000000000000000000000000000000000000000000000000000000000000000000000000000000000000000000000000000000000000000000000000000000000000000000000000000000000000000000000000000000000000000000000000000000000000000000000000000000000000000000000000000000000000000000000000000000000000000000000000000000000000000000000000000000000000000000000000000000000000000000000000000000000000000000000000000000000000000000000000000000000000000000000000000000000000000000000000000000000000000000000000000000000000000000000000000000000000000000000000000000000000000000000000000000000000000000000000000000000000000000000000000000000000000000000000000000000000000000000000000000000000000000000000000000000000000000000000000000000000000000000000000000000000000000000000000000000000000000000000000000000000000000000000000000000000000000000000000000000000000000000000000000000000000000000000000000000000000000000000000000000000000000000000000000000000000000000000000000000000000000000000000000000000000000000000000000000000000000000000000000000000000000000000000000000000000000000000000000000000000000000000000000000000000000000000000000000000000000000000000000000000000000000000000000000000000000000000000000000000000000000000000000000000000000000000000000000000000000000000000000000000000000000000000000000000000000000000000000000000000000000000000000000000000000000000000000000000000000000000000000000000000000000000000000000000000000000000000000000000000000000000000000000000000000000000000000000000000000000000000000000000000000000000000000000000000000000000000000000000000000000000000000000000000000000000000000000000000000000000000000000000000000000000000000000000000000000000000002300000000000000000000000000000000000000000000000000000000000000000000000000000000000000000000000000000000000000000000000000000000000000000000000000000000000000000000000000000000000000000000000000000000000000000000000000000000000000000000000000000000000000000000000000000000000000000000000000000000000000000000000000000000000000000000000000000000000000000000000000000000000000000000000000000000000000000000000000000000000000000000000000000000000000000000000000000000000000000000000000000000000000000000000000000000000000000000000000000000000000000000000000000000000000000000000000000000000000000000000000000000000000000000000000000000000000000000000000000000000000000000000000000000000000000000000000000000000000000000000000000000000000000000000000000000000000000000000000000000000000000000000000000000000000000000000000000000000000000000000000000000000000000000000000000000000000000000000000000000000000000000000000000000000000000000000000000000000000000000000000000000000000000000000000000000000000000000000000000000000000000000000000000000000000000000000000000000000000000000000000000000000000000000000000000000000000000000000000000000000000000000000000000000000000000000000000000000000000000000000000000000000000000000000000000000000000000000000000000000000000000000000000000000000000000000000000000000000000000000000000000000000000000000000000000000000000000000000000000000000000000000000000000000000000000000000000000000000000000000
#05052:0000000053000053
#05056:00000000000000000000005300000000
#05058:44
#05054:34
#05452:22000000000000000000000000000000000000000000000000000000000000000000000000000000000000000000000000000000000000000000000000000000000000000000000000000000000000000000000000000000000000000000000000000000000000000000000000000000000000000000000000000000000000000000000000000000000000000000000000000000000000000000000000000000000000000000000000000000000000000000000000000000000000000000000000000000000000000000000000000000000000000000000000000000000000000000000000000000000000000000000000000000000000000000000000000000000000000000000000000000000000000000000000000000000000000000000000000000000000000000000000000000000000000000000000000000000000000000000000000000000000000000000000000000000000000000000000000000000000000000000000000000000000000000000000000000000000000000000000000000000000000000000000000000000000000000000000000000000000000000000000000000000000000000000000000000000000000000000000000000000000000000000000000000000000000000000000000000000000000000000000000000000000000000000000000000000000000000000000000000000000000000000000000000000000000000000000000000000000000000000000000000000000000000000000000000000000000000000000000000000000000000000000000000000000000000000000000000000000000000000000000000000000000000000000000000000000000000000000000000000000000000000000000000000000000000000000000000000000000000000000000000000000000000000000000000000000000000000000000000000000000000000000000000000000000000000000000000000000000000000000000000000000000000000000000000000000000000000000000000000000000000000000000000000000000000000000000000000000000000000000000000000000000000000000000000000000000000000000000000000000000000000000000000000000000000000000000000000000000000000000000000000000000000000000000000000000000000000000000000000000000000000000000000000000000000000000000000000000000000000000000000000000000000000000000000000000000000000000000000000000000000000000000000000000000000000000000000000000000000006c5c0000000000000000000000000000000000000000000000000000000000000000000000000000000000000000000000000000000000000000000000000000000000000000000000000000000000000000000000000000000000000000000000000000000000000000000000000000000000000000000000000000000000000000000000000000000000000000000000000000000000000000000000000000000000000000000000000000000000000000000000000000000000000000000000000000000000000000000000000000000000000000000000000000000000000000000000000000000000000000000000000000000000000000000000000000000000000000000000000000000000000000000000000000000000000000000000000000000000000000000000000000000000000000000000000000000000000000000000000000000000000000000000000000000000000000000000000000000000000000000000000000000000000000000000000000000000000000000000000000000000000000000000000000000000000000000000000000000000000000000000000000000000000000000000000000000000000000000000000000000000000000000000000000000000000000000000000000000000000000000000000000000000000000000000000000000000000000000000000000000000000000000000000000000000000000000000000000000000000000000000000000000000000000000000000000000000000000000000000000000000000000000000000000000000000000000000000000000000000000000000000000000000000000000000000000000000000000000000000000000000000000000000000000000000000000000000000000000000000000000000000000000000000000000000000000000000000000000000000000000000000000000000000000000000000000000000000000000000000000000000000000000000000000000000000000000000000000000000000000000000000000000000000000000000000000000000000000000000000000000000000000000000000000000000000000000000000000000000000000000000000000000000000000000000000000000000000000000000000000000000000000000000000000000000000000000000000000000000000000000000000000000000000000000000000000000000000000000000000000000000000000000000000000000000000000000000000000000000000000000000000000000000000000000000000000000000000000000000000000000000
#0545c:22
#05152:0053
#05156:0000000000000000000000000000000000000023000000000000000000000000
#04852:1c
#03058:44
#03054:34
#0003b0:00000000000000130000002300000000
#000370:00000000000000000053000000000000
#000370:00000000000000000000000013000023
#0003b0:0000000000000000000000000000000000000000000000000000005300000000
#001320:000000000000000000000000130000000023000000000000
#001360:000000000000000000000000000000000000000000000000000000000053000000000000000000000000000000000000
#001360:000000000000000000000000000000000000130000000023
#001320:000000000000000000000000000000000000000000000000000000000000000000000000000000000053000000000000
#002320:13230000
#002380:0053000000000000
#002371:00130000
#002381:000000000000003300000000000000000000000000000000
#002391:003300
#0023a1:0000003300000000
#0023b1:000000000000000000003333230000000000000000000000
#002360:000000000000000000000000130000000023000000000000
#002320:000000000000000000000000000000000000000000000000000000000053000000000000000000000000000000000000
#004320:13230000
#004360:0053000000000000
#0043b0:0013
#004370:00000033
#0053b0:3323
#005370:00330000
#004361:0013
#004321:00000023
#005321:0013000000000000
#005361:0000002300000000
#005321:0013
#005361:00000033
#006321:33
#006361:00230000
#0053b0:0000000000130000
#005370:0000000000000023
#0083b1:0013
#008371:0000000000230000
#008371:00000000000000000000001300000000
#0083b1:00000000000000000000000000230000
#0083b1:0000000000000013
#009371:23
#0093b1:00000000000000001300002300000000
#009371:0000000000000000000000000000000000000053000000000000000000000000
#0103b1:13
#010371:0023000000000000
#010320:0013000000000000
#010360:00230000
#010320:00001323
#010360:0000000000530000
#0103b1:00001323
#010371:000000000000000000000000000000000000000000000000000000000000000000000000000000000000000000000000000000000000000000000000000000000000000000000000000000000000000000000000000000000000000000000000000000000000000000000000000000000000000000000000000000000000000000000000000000000000000000000000000000000000000000000000000000000000000000000000000000000000000000000000000000000000000000000000000000000000000000000000000000000000000000000000000000000000000000000000000000000000000000000000000000000000000000000000000000000000000000000000000000000000000000000000000000000000000000000000000000000000000000000000000000000000000000000000000000000000000000000000000000000000000000000000000000000000000000000000000000000000000000000000000000000000000000000000000000000000000000000000000000000000000000000000000000000000000000000000000000000000000000000000000000000000000000000000000000000000000000000000000000000000000000000000000000000000000000000000000000000000000000000000000000000000000000000000000000000000000000000000000000000000000000000000000000000000000000000000000000000000000000000000000000000000000000000000000000000000000000000000000000000000000000000000000000000000000000000000000000000000000000000000000000000000000000000000000000000000000000000000000000000000000000000000000000000000000000000000000000000000000000000000000000000000000000000000000000000000000000000000000000000000000000000000000000000000000000000000000000000000000000000000000000000000000000000000000000000000000000000000000000000000000000000000000000000000000000000000000000000000000000000000000000000000000000000000000000000000000000000000000000000000000000000000000000000000000000000000000000000000000000000000000000000000000000000000000000000000000000000000000000000000000000000000000000000000000000000000000000000000000000000000000000000000000000000000000000000000000000000000000000000000000000000000000000000000000000000000000000000000000000000000000000000000000000000000000000000000000000000000000000000000000000000000000000000000000000000000000000000000000000000000000000000000000000000000000000000000000000000000000000000000000000000000000000000000000000000000000000000000000000000000000000000000000000000000000000000000000000000000000000000000000000000000000000000000000000000000000000000000000000000000000000000000000000000000000000000000000000000000000000000000000000000000000000000000000000000000000000000000000000000000005300000000000000000000000000000000000000000000000000000000000000000000000000000000000000000000000000000000000000000000000000000000000000000000000000000000000000000000000000000000000000000000000000000000000000000000000000000000000000000000000000000000000000000000000000000000000000000000000000000000000000000000000000000000000000000000000000000000000000000000000000000000000000000000000000000000000000000000000000000000000000000000000000000000000000000000000000000000000000000000000000000000000000000000000000000000000000000000000000000000000000000000000000000000000000000000000000000000000000000000000000000000000000000000000000000000000000000000000000000000000000000000000000000000000000000000000000000000000000000000000000000000000000000000000000000000000000000000000000000000000000000000000000000000000000000000000000000000000000000000000000000000000000000000000000000000000000000000000000000000000000000000000000000000000000000000000000000000000000000000000000000000000000000000000000000000000000000000000000000000000000000000000000000000000000000000000000000000000000000000000000000000000000000000000000000000000000000000000000000000000000000000000000000000000000000000000000000000000000000000000000000000000000000000000000000000000000000000000000000000000000000000000000000000000000000000000000000000000000000000000000000000000000000000000000000000000000000000000000000000000000000000000000000000000000000000000000000000000000000000
#0123b1:00000000132300000000000000000000
#0123b1:0000000000130000
#012371:00000023
#012320:00000013
#012360:0000000000000053
#013320:23
#013360:0013000000000000
#013320:00230000
#0133b0:00000000000000130000000000000000
#013370:0000000000230000
#014390:0012002200000000
#0143c0:00320000
#014371:0012002200000000
#014341:00320000
#014351:0000000000120022
#014321:00000032
#014370:0000000000120022
#0143a0:00000032
#016320:00000000132300000000000000000000
#016320:0000000000130000
#016360:00000023
#0163b1:00000013
#016371:0000000000000053
#0173b1:23
#017321:00000000000000130000000000000000
#017361:0000000000230000
#0203b1:00000000001300000000000000000000
#020371:00000000000000230000000000000000
#020320:00000000000000130000000000000000
#020360:0000000000230000
#020370:00000013
#0203b0:0000000000000053
#021370:23
#0213b0:00000000001300000000000000000000
#021370:00000000000000230000000000000000
#021321:00000000000000130000230000000000
#021361:0000000000000000000000000000000000530000000000000000000000000000
#022371:0013002300000000
#0223b1:00330000
#0223b1:0000000000130023
#022371:00000033
#023371:0013000000000000
#0233b1:00230000
#023360:00130000
#023320:0000002300000000
#023371:0000001300000000
#0233b1:0023
#023360:0013
#023320:0000000000230000
#023371:0000000000130000
#0233b1:00000023
#024321:00000000001300000000000000000000
#024361:00000000000000230000000000000000
#0243b0:00000000000000130000000000000000
#024370:0000000000230000
#024360:00000013
#024320:0000000000000053
#025360:23
#025320:00000000001300000000000000000000
#025360:00000000000000230000000000000000
#0253b1:00000000000000130000230000000000
#025371:0000000000000000000000000000000000530000000000000000000000000000
#026361:0013002300000000
#026321:00330000
#026321:0000000000130023
#026361:00000033
#027321:0013000000000000
#027361:00230000
#0273b0:00130000
#027370:0000002300000000
#027321:0000001300000000
#027361:0023
#0273b0:0013
#027370:0000000000230000
#027320:0000000000000014
#027380:00000000000000000000000000000054
#028380:24
#0273a1:0000000000000014
#027341:00000000000000000000000000000054
#028341:24
#028321:0000000000000014
#028381:00000000000000000000000000000054
#029381:24
#0283a0:0000000000000014
#028340:00000000000000000000000000000054
#029340:24
#029320:0000000000000014
#029380:00000000000000000000000000000054
#030380:24
#0293a1:0000000000000014
#029341:00000000000000000000000000000054
#030341:24
#032371:00000000001300000000000000000000
#0323b1:00000000000000230000000000000000
#032371:0013
#0323b1:0000000000230000
#032371:00000000000000000000001300000000
#0323b1:00000000000000000000000000230000
#033361:00000000001300000000000000000000
#033321:00000000000000230000000000000000
#033361:0013
#033321:0000000000230000
#033361:00000000000000000000001300000000
#033321:00000000000000000000000000230000
#035321:1323000000000000
#035361:00530000000000000000000000000000
#0353b1:0000132300000000
#035371:00000000005300000000000000000000
#035321:0000000013230000
#035361:00000000000000000053000000000000
#0353b1:0000000000001323
#035371:00000000000000000000000000530000
#036321:00000000001300000000000000000000
#036361:00000000000000230000000000000000
#036321:0013
#036361:0000000000230000
#036321:00000000000000000000001300000000
#036361:00000000000000000000000000230000
#0373b1:00000000001300000000000000000000
#037371:00000000000000230000000000000000
#0373b1:0013
#037371:0000000000230000
#0373b1:00000000000000000000001300000000
#037371:00000000000000000000000000230000
#0393b1:13332300
#039371:0033003300000000
#039320:00001333
#039360:0000000000330033
#040320:23
#040360:00000000001300000000000000000000
#040320:00000000000000230000000000000000
#040320:0013
#040360:0000000000230000
#040360:00000000000000000000001300000000
#040320:00000000000000000000000000230000
#041360:0013000000000000
#041320:000000000000002300000000000000000000000000000000
#041371:000000000000001300000000000000000000000000000000
#0413b1:000000000000000000000023000000000000000000000000
#042371:00000000001300000000000000000000
#0423b1:00000000000000230000000000000000
#0423b1:0013
#042371:0000000000230000
#042371:00000000000000000000001300000000
#0423b1:00000000000000000000000000230000
#043321:0013000000000000
#043361:00000053230000000000000000000000
#0433b0:00130000
#043370:00000000005323000000000000000000
#043321:0000001300000000
#043361:00000000000000532300000000000000
#0443b1:00000000001300000000000000000000
#044371:00000000000000230000000000000000
#044371:0013
#0443b1:0000000000230000
#0443b1:00000000000000000000001300000000
#044371:00000000000000000000000000230000
#045321:00000000001300000000000000000000
#045361:00000000000000230000000000000000
#045361:0013
#045321:0000000000230000
#045321:00000000000000000000001300000000
#045361:00000000000000000000000000230000
#0473a1:1424000000000000
#047361:00540000000000000000000000000000
#047320:0014240000000000
#047360:00000054000000000000000000000000
#0473a1:0000142400000000
#047361:00000000005400000000000000000000
#047320:0000001424000000
#047360:00000000000000540000000000000000
#0483a0:0000001222000000
#048341:0000000012220000
#0483c0:0000000000122200
#048321:0000000000001222
#048370:0000000000000012
#049370:22
#049320:0000000000000014
#049380:00000000000000000000000000000054
#050380:24
#0493a1:0000000000000014
#049341:00000000000000000000000000000054
#050341:24
#050321:0013
#050361:0000000000230000
#050361:00000000000000000000001300000000
#050321:00000000000000000000000000230000
#050321:0000000000000013
#051361:23
#051321:00000000000000001300002300000000
#051361:0000000000000000000000000000000000000053000000000000000000000000
#052321:13
#052361:0023000000000000
#0523b0:0013000000000000
#052370:00230000
#0523b0:00001323
#052370:0000000000530000
#052321:00001323
#052361:000000000000000000000000000000000000000000000000000000000000000000000000000000000000000000000000000000000000000000000000000000000000000000000000000000000000000000000000000000000000000000000000000000000000000000000000000000000000000000000000000000000000000000000000000000000000000000000000000000000000000000000000000000000000000000000000000000000000000000000000000000000000000000000000000000000000000000000000000000000000000000000000000000000000000000000000000000000000000000000000000000000000000000000000000000000000000000000000000000000000000000000000000000000000000000000000000000000000000000000000000000000000000000000000000000000000000000000000000000000000000000000000000000000000000000000000000000000000000000000000000000000000000000000000000000000000000000000000000000000000000000000000000000000000000000000000000000000000000000000000000000000000000000000000000000000000000000000000000000000000000000000000000000000000000000000000000000000000000000000000000000000000000000000000000000000000000000000000000000000000000000000000000000000000000000000000000000000000000000000000000000000000000000000000000000000000000000000000000000000000000000000000000000000000000000000000000000000000000000000000000000000000000000000000000000000000000000000000000000000000000000000000000000000000000000000000000000000000000000000000000000000000000000000000000000000000000000000000000000000000000000000000000000000000000000000000000000000000000000000000000000000000000000000000000000000000000000000000000000000000000000000000000000000000000000000000000000000000000000000000000000000000000000000000000000000000000000000000000000000000000000000000000000000000000000000000000000000000000000000000000000000000000000000000000000000000000000000000000000000000000000000000000000000000000000000000000000000000000000000000000000000000000000000000000000000000000000000000000000000000000000000000000000000000000000000000000000000000000000000000000000000000000000000000000000000000000000000000000000000000000000000000000000000000000000000000000000000000000000000000000000000000000000000000000000000000000000000000000000000000000000000000000000000000000000000000000000000000000000000000000000000000000000000000000000000000000000000000000000000000000000000000000000000000000000000000000000000000000000000000000000000000000000000000000000000000000000000000000000000000000000000000000000000000000000000000000000000000000000000000005300000000000000000000000000000000000000000000000000000000000000000000000000000000000000000000000000000000000000000000000000000000000000000000000000000000000000000000000000000000000000000000000000000000000000000000000000000000000000000000000000000000000000000000000000000000000000000000000000000000000000000000000000000000000000000000000000000000000000000000000000000000000000000000000000000000000000000000000000000000000000000000000000000000000000000000000000000000000000000000000000000000000000000000000000000000000000000000000000000000000000000000000000000000000000000000000000000000000000000000000000000000000000000000000000000000000000000000000000000000000000000000000000000000000000000000000000000000000000000000000000000000000000000000000000000000000000000000000000000000000000000000000000000000000000000000000000000000000000000000000000000000000000000000000000000000000000000000000000000000000000000000000000000000000000000000000000000000000000000000000000000000000000000000000000000000000000000000000000000000000000000000000000000000000000000000000000000000000000000000000000000000000000000000000000000000000000000000000000000000000000000000000000000000000000000000000000000000000000000000000000000000000000000000000000000000000000000000000000000000000000000000000000000000000000000000000000000000000000000000000000000000000000000000000000000000000000000000000000000000000000000000000000000000000000000000000000000000000000000000
#0543c1:12
#054321:005c
#0553c1:22
#054320:12000000000000000000000000000000000000000000000000000000000000000000000000000000000000000000000000000000000000000000000000000000000000000000000000000000000000000000000000000000000000000000000000000000000000000000000000000000000000000000000000000000000000000000000000000000000000000000000000000000000000000000000000000000000000000000000000000000000000000000000000000000000000000000000000000000000000000000000000000000000000000000000000000000000000000000000000000000000000000000000000000000000000000000000000000000000000000000000000000000000000000000000000000000000000000000000000000000000000000000000000000000000000000000000000000000000000000000000000000000000000000000000000000000000000000000000000000000000000000000000000000000000000000000000000000000000000000000000000000000000000000000000000000000000000000000000000000000000000000000000000000000000000000000000000000000000000000000000000000000000000000000000000000000000000000000000000000000000000000000000000000000000000000000000000000000000000000000000000000000000000000000000000000000000000000000000000000000000000000000000000000000000000000000000000000000000000000000000000000000000000000000000000000000000000000000000000000000000000000000000000000000000000000000000000000000000000000000000000000000000000000000000000000000000000000000000000000000000000000000000000000000000000000000000000000000000000000000000000000000000000000000000000000000000000000000000000000000000000000000000000000000000000000000000000000000000000000000000000000000000000000000000000000000000000000000000000000000000000000000000000000000000000000000000000000000000000000000000000000000000000000000000000000000000000000000000000000000000000000000000000000000000000000000000000000000000000000000000000000000000000000000000000000000000000000000000000000000000000000000000000000000000000000000000000000000000000000000000000000000000000000000000000000000000000000000000000000000000000000000005c000000000000000000000000000000000000000000000000000000000000000000000000000000000000000000000000000000000000000000000000000000000000000000000000000000000000000000000000000000000000000000000000000000000000000000000000000000000000000000000000000000000000000000000000000000000000000000000000000000000000000000000000000000000000000000000000000000000000000000000000000000000000000000000000000000000000000000000000000000000000000000000000000000000000000000000000000000000000000000000000000000000000000000000000000000000000000000000000000000000000000000000000000000000000000000000000000000000000000000000000000000000000000000000000000000000000000000000000000000000000000000000000000000000000000000000000000000000000000000000000000000000000000000000000000000000000000000000000000000000000000000000000000000000000000000000000000000000000000000000000000000000000000000000000000000000000000000000000000000000000000000000000000000000000000000000000000000000000000000000000000000000000000000000000000000000000000000000000000000000000000000000000000000000000000000000000000000000000000000000000000000000000000000000000000000000000000000000000000000000000000000000000000000000000000000000000000000000000000000000000000000000000000000000000000000000000000000000000000000000000000000000000000000000000000000000000000000000000000000000000000000000000000000000000000000000000000000000000000000000000000000000000000000000000000000000000000000000000000000000000000000000000000000000000000000000000000000000000000000000000000000000000000000000000000000000000000000000000000000000000000000000000000000000000000000000000000000000000000000000000000000000000000000000000000000000000000000000000000000000000000000000000000000000000000000000000000000000000000000000000000000000000000000000000000000000000000000000000000000000000000000000000000000000000000000000000000000000000000000000000000000000000000000000000000000000000000000000000000000000000
#055320:22
