This file was generated by Ched 2.6.4.0.
#TITLE ""
#ARTIST ""
#DESIGNER "hard"
#DIFFICULTY 0
#PLAYLEVEL
#SONGID ""
#WAVE ""
#WAVEOFFSET 0
#JACKET ""
#REQUEST "ticks_per_beat 480"
#00002: 4
#BPM01: 78
#BPM02: 80
#BPM03: 103
#BPM04: 108
#BPM05: 123
#BPM06: 135
#BPM07: 100
#00208: 00010300
#00408: 00020400
#00008: 0504
#00508: 0005
#00608: 0006
#00108: 0007
#TIL00: ""
#HISPEED 00
#MEASUREHS 00
#0001a:00000000000000140000000000000000
#0011a:14
#00112:0014
#00212:14
#00218:0014
#00318:14
#00314:0014
#00414:14
#00618:0014
#00718:14
#00714:0014
#00814:1414
#00810:41
#00918:1414
#01012:1414
#0111a:1414
#01214:14
#01218:0014
#01314:14
#01318:0014
#01412:14
#0141a:0014
#01618:14
#01614:0014
#01610:41
#01718:14
#01714:0014
#0181a:14
#01812:0014
#02012:14
#0201a:0014
#02114:14
#02118:0014
#02212:14
#0221a:0014
#0241a:14
#02412:0014
#0241f:11
#02518:14
#02514:0014
#0261a:14
#02612:0014
#02818:00000014
#02814:24
#02914:14000014
#02918:0014
#03014:00000014
#03018:14
#0311a:1414
#03112:00140000
#0321a:00140000
#03214:24
#0321f:21
#0331a:14
#03314:00140000
#03310:41
#03414:14
#0341a:00140000
#03412:0014
#03418:00000014
#03612:00140000
#03618:24
#03712:14
#03718:00140000
#03818:14
#03812:00140000
#0381a:0014
#03814:00000014
#04018:00140000
#04014:24
#04010:41
#04214:00140000
#04218:24
#04312:0014
#0431a:00000014
#04314:14
#04318:00140000
#04118:14
#0411a:0014
#04114:00140000
#04112:00000014
#04418:00140000
#04412:24
#04514:00140000
#0451a:24
#04612:14
#0461a:00140000
#04614:0014
#04618:00000014
#04712:14
#0471a:00140000
#04714:00001414
#04718:0000000000140014
#04710:41
#04814:14
#04918:1414
#04914:00140014
#0501a:1414
#05112:1414
#05218:1414
#02310:41
#00758:14
#00854:14
#02854:14
#03058:14
#04854:14
#0043a0:0014
#0053a0:24
#005320:0014
#006320:24
#015320:14343424
#019380:14343424
#023320:14343424
#0273a0:14343424
#032340:00001424
#0333a0:00001424
#035320:1434
#035340:00340024
#036380:00001424
#037320:00001424
#0393a0:1434
#039380:00340024
#040320:00001424
#0423a0:00001424
#044340:00001424
#045380:00001424
#053340:1434
#053320:00340034
#054340:34
#055320:24
