This file was generated by Ched 2.7.0.0.
#TITLE ""
#ARTIST ""
#DESIGNER ""
#DIFFICULTY 0
#PLAYLEVEL
#SONGID ""
#WAVE ""
#WAVEOFFSET 0
#JACKET ""
#REQUEST "ticks_per_beat 480"
#00002: 4
#BPM01: 240
#00008: 01
#TIL00: ""
#HISPEED 00
#MEASUREHS 00
#0051a:14
#00614:14
#00718:14
#00812:14
#00918:14
#01012:14
#0111a:14
#01214:14
#0131a:14
#01414:14
#01518:14
#01612:14
#01718:14
#01812:14
#02418:14
#02512:14
#0261a:14
#02918:14
#03012:14
#03314:14
#0341a:14
#03718:14
#03812:14
#04414:14
#04714:14
#04818:14
#05118:14
#05214:14
#05514:14
#05618:14
#05918:14
#06014:14
#06414:14
#06814:14
#07214:14
#07318:14
#07412:14
#0751a:14
#07614:14
#07718:14
#07812:14
#07912:0016
#07918:26
#0791f:21
#08018:16
#08012:0016
#08010:41
#08212:16
#08218:0016
#08418:16
#08412:0016
#08718:1616
#08812:1616
#09012:1616
#09212:16
#09218:0016
#09318:0016
#09312:26
#09412:16
#09418:0016
#09618:16
#09612:0016
#09812:16
#09818:0016
#10112:1616
#10218:1616
#10418:1616
#10618:16
#10612:0016
#11014:14
#11118:14
#11212:14
#11318:14
#11310:41
#11412:14
#1151a:14
#11614:14
#11814:14
#11918:14
#12012:14
#12118:14
#12212:14
#1171a:14
#0611f:11
#04219:34
#04019:34
#02310:41
#03910:41
#05310:41
#09910:41
#001350:16000036
#002350:0026
#0193a0:14
#0203a0:24
#021340:1400000000000034
#023340:24
#027340:14
#028340:24
#031380:14
#032380:24
#035340:14
#036340:24
#0393a0:14
#040390:34
#041380:34
#042390:34
#0433a0:24
#0453a0:14
#0463a0:24
#049320:14
#050320:24
#0533a0:14
#0543a0:24
#057320:14
#058320:24
#0613a0:14
#063380:24
#065380:14
#0673a0:24
#0693a0:14
#071380:24
#081380:1626
#083320:1626
#085380:1626
#086320:1626
#089380:1626
#091380:1626
#095320:1626
#097380:1626
#099320:1626
#100380:1626
#103320:1626
#105320:1626
#107380:16000036
#109380:26
#123380:16000036
#124380:0036
#125380:00260000
#126320:1600360036360036
#127320:00360000
#128320:0026
