This file was generated by Ched 2.7.0.0.
#TITLE ""
#ARTIST ""
#DESIGNER ""
#DIFFICULTY 0
#PLAYLEVEL
#SONGID ""
#WAVE ""
#WAVEOFFSET 0
#JACKET ""
#REQUEST "ticks_per_beat 480"
#00002: 4
#BPM01: 240
#00008: 01
#TIL00: ""
#HISPEED 00
#MEASUREHS 00
#0051b:0000130000000013
#00516:0000000000000013
#00518:1313
#00512:1300000000130000
#00515:00130000
#00619:0013000000000000
#00617:0000001300000000
#00612:0000001300000000
#00614:0013000000000000
#0061b:00000013
#0071b:0000130000000013
#00716:0000000000000013
#00718:1313
#00712:1300000000130000
#00715:00130000
#00819:0013000000000000
#00817:0000001300000000
#00812:0000001300000000
#00814:0013000000000000
#00816:00000013
#0091b:1313
#00915:0000000000130000
#00917:0000000000000013
#00912:0000000000000013
#00918:00130000
#0101b:00130013
#01012:0013
#01015:00000013
#01018:0013
#01118:1300000000130000
#0111b:00130000
#01115:0013
#01117:0000000000000013
#01112:0000000000000023
#01216:00131300
#0121b:0000001300000000
#01218:00000013
#01312:0000130000000013
#01317:0000000000000013
#01315:1313
#0131b:1300000000130000
#01318:00130000
#01414:0013000000000000
#01416:0000001300000000
#0141b:0000001300000000
#01419:0013000000000000
#01412:00000013
#01512:0000130000000013
#01517:0000000000000013
#01515:1313
#0151b:1300000000130000
#01518:00130000
#01614:0013000000000000
#01616:0000001300000000
#0161b:0000001300000000
#01619:0013000000000000
#01617:00000013
#01712:1313
#01718:0000000000130000
#0171b:0000000000000013
#01715:00130000
#01716:0000000000000023
#01812:00130013
#0181b:0013
#01818:00000013
#01815:0013
#01912:1400000000130000
#0191a:14
#01918:0013
#0191b:0000000000000013
#01915:0000000000000023
#02012:0013000000000000
#02018:0023000000001300
#0201b:0000002300000000
#02015:0023
#02115:0013
#0211b:0000000000130000
#02117:0000000000000013
#02112:2400000000000023
#0211a:24
#0221b:00130000
#02216:0000001300000000
#02212:00000013
#02318:13
#02315:13
#0231b:00130013
#02312:0000001300000000
#02310:41
#02418:13
#0241b:00130013
#02415:00000013
#02412:13
#0251b:00130000
#02512:13000013
#02518:1313
#02615:13000013
#02618:00130000
#0261b:0013
#02712:13
#0271b:00130013
#02715:0000001300000000
#02818:13
#0281b:00130013
#02815:13
#02812:00000013
#02912:00130013
#02915:13
#02918:00130000
#0291b:1313
#03012:00130013
#03015:13
#03018:0013
#0301b:00130000
#03115:13
#03118:00130013
#0311b:0013
#03112:0000001300000000
#03212:1313
#03215:00130000
#03217:00000013
#0321b:13
#03218:00130000
#03319:13
#03314:0013
#03312:00000013
#03415:1300000000130000
#03412:00130000
#03512:13
#0351b:00130013
#03518:0013
#03515:0000001300000000
#03615:1313
#03612:00130000
#03618:13000013
#0361b:00130000
#0371b:13
#03718:00130000
#03715:0013
#03712:00000013
#03815:13
#03812:00130013
#03818:1313
#0381b:00130013
#0391b:0000130000000013
#03918:0000000023130000
#03915:23
#03910:41
#04115:1300000023130000
#04112:00130000
#04118:0000000000000013
#0411b:23
#04515:13
#04518:13
#04512:00130013
#0451b:0000001300000000
#04615:13
#04612:00130013
#04618:00000013
#0461b:13
#04712:00130000
#0471b:13000013
#04715:1313
#04818:13000013
#04815:00130000
#04812:0013
#0491b:13
#04912:00130013
#04918:0000001300000000
#05015:13
#05012:00130013
#05018:13
#0501b:00000013
#0511b:00130013
#05118:13
#05115:00130000
#05112:1313
#0521b:00130013
#05218:13
#05215:0013
#05212:00130000
#05318:13
#05315:00130013
#05312:0013
#0531b:0000001300000000
#05310:41
#0541b:1313
#05418:00130000
#05415:00130013
#05412:13
#05512:0013
#05515:00000013
#05518:00130000
#0551b:0013
#05618:1300000000130000
#0561b:00130000
#0571b:13
#05715:00130013
#05712:0013
#05812:1313
#05815:00130000
#05818:1313
#05918:0013
#0591b:00000013
#05912:13
#05915:00130000
#06018:13
#0601b:00130013
#06015:00130013
#06012:1313
#04312:1400140000000026
#04318:0000000014140026
#0431a:24240000
#04314:0000000024240000
#04012:00000013
#04015:0013
#04018:00230023
#0401b:0023
#0441a:0000001300000000
#04419:0000000000130000
#04412:00130000
#04418:0000000000000013
#04413:0013
#04414:00000013
#0441b:0013000000000000
#0931a:24140014
#09312:00140014
#09316:0024
#0941a:00140014
#09412:24140014
#09416:0024
#0951a:24140014
#09512:00140014
#09516:0024
#1011b:00132300
#10112:00160013
#10118:00000016
#10116:24
#10218:00132316
#10215:00000013
#10212:23160000
#10318:00132316
#10312:00160013
#10315:23
#1041b:00132300
#10415:00000013
#10412:23160000
#10418:00000016
#10518:16000013
#10512:26130013
#10515:0013
#1051b:00330000
#1061b:1300001300000013
#10615:13001313
#10612:00130000
#10618:0000000000130000
#10712:1614
#10718:0000160000140000
#1071a:0000000000000014
#10714:00000014
#10816:00130000
#10814:0013
#10812:00000013
#1081b:0000001300000000
#10819:0000000000130000
#10817:0000000000000013
#1001a:00142400
#10016:1400001400000000
#10012:24
#10912:2400000000000014
#1091b:0000000013000013
#10916:0000140000140000
#11012:0014001400000000
#11017:0000001300000000
#11019:0013000000000000
#11016:00000014
#1111a:2400000000000014
#11112:0000000013000013
#11116:0000140000140000
#1121a:0014001400000000
#11216:0000001300001400
#11214:0013000000000000
#11716:00141400
#1171b:0000000000130000
#11717:0000000000000013
#11712:2400000000000013
#11916:0000140014000013
#1191b:0000000000000013
#11912:0000000000130000
#1191a:24
#12016:0000001300000000
#12012:00001300000000000013000000000000
#12017:0013000000000000
#1201b:0000001300001300
#11315:0013
#1131b:0000000000130000
#11317:0000000000000013
#11312:2400000000000013
#11318:00130000
#1131a:24
#11310:41
#1141b:00130013
#11412:0013
#11416:00000013
#11417:0013
#11518:0013
#11512:2400000000130023
#11517:0000000000000013
#11515:00130000
#1151a:24
#11616:00131300
#1161b:0000001300000000
#11618:00000013
#12118:0013
#12115:0000000000130000
#1211b:0000000000000013
#1211a:24140000
#12112:24140000
#12116:0000000000000023
#12212:00130013
#1221b:0013
#12217:00000013
#12216:0013
#12316:1313000000000000
#12317:0000000000001313
#1231a:24
#12312:00000024
#12416:0000000013130000
#1241a:0024
#12612:14140000
#1261a:0000000000140014
#12618:24241200
#12614:0000000000240024
#12712:00160000
#12718:00260000
#09612:00142400
#09616:1400001400000000
#0961a:24
#00118:2600001300002600
#00115:0013
#00112:26000026
#00218:1326
#00215:0013000000000000
#00212:0026
#00316:00140000
#00318:0014
#0031a:00000014
#00312:0000000000000016
#00418:00130000
#00415:0000001300001300
#0041b:0013
#06316:00130000
#06317:13
#06312:13
#06318:00000013
#06315:0000000000000013
#06418:00130013
#0641b:0013
#06415:0013
#06412:00000013
#06717:00130000
#06716:13
#0671b:13
#06715:00000013
#06718:0000000000000013
#06815:00130013
#06812:0013
#06818:0013
#0681b:00000013
#06918:13
#06912:1300000013130000
#06915:00130000
#06916:0000000000000023
#07118:00130000
#07112:13000013
#0711b:1300000000000013
#07212:00130000
#0721b:0013
#07216:0013
#07214:00000013
#07219:00000013
#07317:13
#07316:0013
#07314:00130000
#07319:00000013
#07312:23
#07412:0013
#0741b:13
#07414:00130000
#07419:00000013
#0751b:13
#07512:00131300
#07516:00000013
#07517:0000001300000000
#07612:13
#0761b:00131300
#07617:13000013
#07616:0000001300000000
#07718:00130013
#0771b:0013
#07712:2400000000130000
#07715:0000000000000013
#0771a:24
#0781b:0013001300000013
#07815:00130013
#07812:0013
#07818:0000000000130000
#07916:0013
#07912:13
#0791a:00240024
#0791f:21
#08012:13
#08016:0000001300131300
#0801a:00240024
#08010:41
#08112:00130000
#0811a:00240024
#08417:0000001300000000
#0841b:1300000000131300
#08412:00240024
#08517:13
#08512:00240024
#0821b:0000000000130000
#08212:0000001300000000
#08216:00240024
#08319:00000013
#0831b:13
#08312:00240024
#0921b:00130000
#09219:0013
#09217:00000013
#09216:0000001300000000
#09214:0000000000130000
#09212:0000000000000013
#08912:23000013
#08917:2300000000000013
#09012:13000013
#0901b:0000001300000000
#0911b:00130000
#09112:00130013
#09115:23
#09118:23
#0871b:23000013
#08716:23000013
#08816:13000013
#0881b:13
#08817:0000001300000000
#06115:00130000
#06112:0000000013130000
#06118:13
#0611f:11
#06116:0000000000000023
#0861b:0013
#08615:0000000000130000
#08618:00000013
#08612:0000000000000013
#08616:00240000
#12518:0000160000120000
#12516:0000000000000012
#12512:00260000
#11817:0000001300000000
#1181b:00001300000000000013000000000000
#11816:0013000000000000
#11812:0000001300001300
#04212:00130000
#04214:0013
#04216:00000013
#0621b:0013
#06219:00000013
#06212:0000002313000000
#06214:0023000000000000
#06518:00130000
#0651b:0000000013130000
#06515:13
#06517:0000000000000023
#06612:0013
#0661b:0000002313000000
#06614:00000013
#06619:0023000000000000
#0701b:0013
#07012:0000002313000000
#07016:00000014
#07014:0023000000000000
#09712:24140014
#0971a:00140014
#09716:0024
#09812:00140014
#0981a:24140014
#09816:0024
#09912:24140014
#0991a:00140014
#09916:0024
#09910:41
#0095b:13
#00952:0000000000000053
#00652:0000005300000000
#00857:0000005300000000
#01157:0000000000000053
#01256:0053
#0145b:0000006300000000
#01656:0000006300000000
#0175b:0000000000000063
#01752:13
#01355:13
#00558:13
#01952:14
#0195a:14
#02157:0000000000000013
#02152:0000000000000053
#02355:53
#02352:0000002300000000
#02358:13
#02452:53
#02552:53
#02558:0053
#02655:53
#0265b:0053
#02752:63
#02755:0000002300000000
#02855:53
#0295b:0053
#02955:53
#02952:00230000
#03058:0053
#03055:53
#03052:00230000
#03155:53
#0315b:13
#03152:0000002300000000
#0325b:53
#03258:00230000
#03552:63
#03555:0000002300000000
#03658:63
#0365b:00230000
#03855:53
#03852:00230000
#03858:0063
#0385b:00000023
#0395b:0000000000000013
#03958:13
#03955:53
#04155:13
#0415b:53
#04158:0000000000000023
#04555:13
#04558:63
#0455b:0000002300000000
#0465b:63
#04755:0063
#0475b:63
#04858:63
#04852:0063
#0495b:53
#04958:0000002300000000
#05058:63
#0515b:00230000
#05158:63
#05152:0063
#0525b:00230000
#05258:63
#05255:0063
#05358:63
#0535b:0000002300000000
#05352:13
#05452:63
#05455:00230000
#0575b:53
#05852:5353
#05858:5353
#05855:00530000
#06058:63
#0605b:00230000
#06055:00000023
#06052:0063
#04352:0000000000000016
#04358:0000000000000016
#05558:00530000
#0555b:0023
#09352:00000014
#0935a:00140000
#0945a:00140000
#09452:00000014
#0955a:00140000
#09552:00000014
#10152:00160000
#10158:00000016
#10252:00160000
#10258:00000016
#10352:00160000
#10358:00000016
#10452:00160000
#10458:00000016
#10558:56
#10552:16
#10752:16
#10758:00160000
#1075a:0000000000000014
#11056:00000014
#11057:0000005300000000
#11256:0000006300001400
#12056:0000005300000000
#1205b:00000013
#12052:00000000000000000023000000000000
#11752:14
#10952:14
#11352:0000000000000053
#11557:0000000000000053
#11656:0053
#1215b:0000000000000063
#12156:0000000000000013
#12752:00660000
#12758:00660000
#12552:00660000
#12558:00160000
#00152:16000016
#00158:16000016
#00258:0016
#00252:0056
#00352:0000000000000016
#0045b:0053
#06355:0000000000000063
#06758:0000000000000053
#06958:63
#06952:13
#0715b:0000000000000053
#07357:53
#07356:0063
#0735b:0013
#07352:13
#07452:1353
#0745b:63
#07457:0013
#0755b:53
#07557:0000002300000000
#07556:13
#07652:63
#07656:0000002300000000
#07755:0000000000000013
#07952:53
#07956:0053
#08052:53
#08056:00000053
#08152:00230000
#08557:53
#0845b:63
#0835b:53
#08856:53
#08857:0000005300000000
#09052:53
#0905b:0000005300000000
#09152:00230000
#0915b:00230000
#09155:53
#09158:53
#06158:53
#06152:13
#08756:53
#0875b:53
#08952:53
#08957:53
#11857:0000006300000000
#11852:00000013
#1185b:00000000000000000023000000000000
#06555:63
#09752:00140000
#0975a:00000014
#09852:00140000
#0985a:00000014
#09952:00140000
#0995a:00000014
#002320:0016
#003320:00230000
#0043b0:0013
#004380:00000023
#006320:0000001300000000
#006360:00000023
#008370:0000001300000000
#0083b0:00000023
#009320:13230000
#009320:0000000000000013
#010360:00230000
#011320:13230000
#011370:0000000000000013
#0123b0:00230000
#012360:0013
#012320:00000023
#0143b0:0000001300000000
#014370:00000023
#016360:0000001300000000
#016320:00000023
#0173b0:13230000
#0173b0:0000000000000013
#018370:00230000
#019350:00132300
#020350:00001323
#021380:00132300
#021320:0000000000000013
#022360:00230000
#0223b0:00001323
#023350:13000023
#023320:0000005300000000
#024320:13
#024350:0023
#025320:13
#025350:0023
#025381:0013
#0263b1:23
#026350:13
#026320:0023
#0263b1:0013
#027381:23
#027320:13000023
#027350:0000005300000000
#028350:13
#028320:0023
#029350:1323
#029320:00530000
#0293b1:0013
#030381:23
#030350:1323
#030320:00530000
#030381:0013
#0313b1:23
#031350:13000023
#031320:0000005300000000
#0323b0:1323
#032380:00530000
#032320:00000013
#033360:00230000
#0333b1:00130000
#033371:00000023
#0343b1:13230000
#034381:0000001300230000
#0343b1:00000013
#0353b1:23
#035320:13000023
#035350:0000005300000000
#036380:1323
#0363b0:00530000
#037350:13
#037320:00230000
#0373b0:0013
#037380:00000023
#038350:1323
#038320:00530000
#038381:0013
#0383b1:00000053
#039381:23
#039350:13
#040320:00230000
#0413b0:13
#041380:0000000000000053
#0423b0:00000023
#041321:0000000000000013
#042321:0023000000000000
#045380:13000023
#0453b0:0000005300000000
#0463b0:13
#046380:0023
#0473b0:13
#047380:0023
#047351:0013
#048321:23
#048380:13
#0483b0:0023
#048321:0013
#049351:23
#0493b0:13000023
#049380:0000005300000000
#050380:13
#0503b0:0023
#051380:1323
#0513b0:00530000
#051321:0013
#052351:23
#052380:1323
#0523b0:00530000
#052351:0013
#053321:23
#053380:13000023
#0533b0:0000005300000000
#054320:1323
#054350:00530000
#0543b0:00000013
#055380:23
#055321:13
#055351:00230000
#055380:00130023
#0553b0:0053
#056320:13230000
#056350:0000001300230000
#056320:00000013
#057320:23
#0573b1:13
#057381:00000023
#058321:1333
#058351:00330023
#058380:13
#0583b0:00230000
#058380:0013
#0583b0:00000023
#059380:13
#0593b0:00230000
#059320:0013
#059350:00000023
#060380:1323
#0603b0:00530000
#060321:0013
#060351:00000053
#061321:23
#061380:13
#0623b0:0000002300000000
#0633b0:00132300
#063321:00001323
#063351:0000000000000013
#064321:00230000
#065351:13
#066321:0000002300000000
#067321:00132300
#0673b0:00001323
#067380:0000000000000013
#0683b0:00230000
#069380:13
#0703b0:0000002300000000
#071350:00132300
#071381:00001323
#0713b1:0000000000000013
#072371:00230000
#073371:13
#0733b1:0023
#073360:0013
#074320:23
#0743b1:13
#074371:0023
#074320:0013
#075360:23
#0753b1:13000023
#075371:0000005300000000
#076321:13000023
#076361:0000005300000000
#077351:00132300
#079321:13
#079361:00230000
#079361:0013
#079321:00000023
#080321:13
#080361:00230000
#080361:00000013
#081321:00530000
#081361:00000023
#082321:13230000
#0833b1:13
#083371:0023
#0843b1:13
#084371:00230000
#085371:13
#0853b1:00000023
#0863b1:13230000
#0873b1:13
#087371:0023
#087360:13
#087320:0023
#088360:13
#088320:0000002300000000
#088371:0000001300000000
#0883b1:00000023
#089321:13
#089361:0023
#089370:13
#0893b0:0023
#090320:13
#090360:0000002300000000
#0903b1:0000001300000000
#090371:00000023
#091351:1323
#091321:00530000
#091380:1323
#0913b0:00530000
#0913b0:00000013
#092380:23
#092351:13
#092321:00230000
#0963a1:14240000
#096321:00001424
#0963a0:00000014
#0973a0:24
#100320:14240000
#1003a0:00001424
#100321:00000014
#101321:24
#105381:16
#1053b1:00332300
#1093a1:14240000
#110371:0000001300000000
#1103b1:00000023
#111321:14240000
#112361:0000001300000000
#112321:00000023
#113321:0000000000000013
#114361:00230000
#115371:0000000000000013
#1163b1:00230000
#116361:0013
#116321:00000023
#1173a1:14240000
#118371:0000001300002300
#1183b1:00000000000000000053000000000000
#119321:14240000
#120361:0000001300002300
#120321:00000000000000000053000000000000
#1213b1:0000000000000013
#122371:00230000
#125321:00160000
#125361:0000000000220000
#127321:00160000
#128321:0023
#127380:00160000
#1283b0:0023
