This file was generated by Ched 2.7.0.0.
#TITLE ""
#ARTIST ""
#DESIGNER ""
#DIFFICULTY 0
#PLAYLEVEL
#SONGID ""
#WAVE ""
#WAVEOFFSET 0
#JACKET ""
#REQUEST "ticks_per_beat 480"
#00002: 4
#BPM01: 240
#00008: 01
#TIL00: ""
#HISPEED 00
#MEASUREHS 00
#0051b:1300000000000013
#00518:0013
#00515:0000000000130000
#00512:00130000
#00618:0000001300000000
#00615:0013000000000000
#00712:1300000000000013
#00718:1300000000130000
#00715:0013
#0071b:00130000
#00918:0000000013000013
#00915:0000130000130000
#0091b:13
#01012:0013
#01015:00000013
#01118:1300000000130000
#0111b:00130000
#01115:0013
#01112:0000000000000013
#02118:0013
#02115:0000130000130000
#0211b:2300000000000013
#02215:00130000
#02218:0000001300000000
#0231b:13
#02318:0000001300000000
#02310:41
#02418:00000013
#02412:13
#02515:13
#02512:0013
#02718:13
#0271b:0000001300000000
#02815:13
#02818:00000013
#02912:00130000
#02915:13
#0301b:00130000
#03018:13
#03115:13
#03112:0000001300000000
#03212:00000013
#0321b:13
#03218:00000013
#0331b:00130000
#03312:00000013
#03315:00130000
#03318:00000013
#0351b:13
#03518:0000001300000000
#03615:13
#03618:00000013
#1051b:00000013
#10515:23
#10615:1313
#10618:00130000
#1061b:00000013
#10912:2400000000000014
#10918:0000000000130000
#10915:0013
#1091a:00140000
#11016:0014000000000000
#1101a:0000001400000000
#11112:2400000000000014
#11118:0000000000130000
#11115:0013
#1111a:00140000
#11218:0014000000000000
#11212:0000001400000000
#11318:0000000013000013
#11315:0000000000130000
#11312:00140000
#1131a:24
#11310:41
#11415:0013
#11418:00000013
#11518:0000000013000013
#11515:0000130000130000
#1151a:24
#11512:24
#12316:0014000000000014
#1231a:00000024
#12312:24
#12416:0000000000140000
#12412:0024
#12715:00130000
#12718:00230000
#00115:0000001300000000
#00118:2613
#00112:00000026
#00218:1326
#00215:0013000000000000
#00312:0000140000000014
#00316:0014
#0031a:00000014
#06318:1300000000000013
#06312:00130000
#0631b:0013
#06315:00000013
#06415:0013
#06418:00000013
#07318:00130000
#0731b:00000013
#07315:0013
#07312:23
#07418:00130000
#0741b:00000013
#07412:13
#07415:0013
#07512:13
#07516:0000001300000000
#0761b:13
#07617:0000001300000000
#07715:00130013
#07718:0000000013000013
#07712:23
#0771b:23
#07915:0013
#0791b:13
#0791f:21
#08012:13
#0801b:00000013
#08010:41
#08117:00130000
#08415:00000013
#08418:13
#08512:13
#08518:13
#08212:13000013
#08215:0000001300000000
#08218:13000013
#0821b:0000001300000000
#08315:13000013
#0831b:13
#08715:00000013
#0871b:23
#08818:13
#0881b:0000001300000000
#04118:0000000000000013
#0411b:23
#12614:2400000014000024
#12618:0000240000240000
#06215:00000013
#0041a:00140000
#00416:0014
#00412:00000014
#00815:0000001300000000
#00818:0013000000000000
#0121a:0014
#01216:00000014
#01312:1300000000000013
#01315:0013
#01318:0000000000130000
#0131b:00130000
#01415:0000001300000000
#01418:0013000000000000
#0151b:1300000000000013
#01515:1300000000130000
#01518:0013
#01512:00130000
#01715:0000000013000013
#01718:0000130000130000
#01712:13
#0181b:0013
#01818:00000013
#01915:1300000000130000
#01912:00130000
#01918:0013
#0191a:0000000000000024
#01618:0000001300000000
#01615:0013000000000000
#02615:13
#0441b:00130000
#04415:0013
#04418:00000013
#04512:13
#04515:0000001300000000
#04615:00000013
#0461b:13
#04718:13
#0471b:0013
#04915:13
#04912:0000001300000000
#05018:13
#05015:00000013
#04818:13
#0511b:00130000
#05118:13
#05212:00130000
#05215:13
#05318:13
#0531b:0000001300000000
#05310:41
#0541b:00000013
#05412:13
#05512:00130000
#0551b:00000013
#05515:13000013
#05518:00130000
#05712:13
#05715:0000001300000000
#05818:13
#05815:00000013
#06118:13
#0611b:00000013
#0611f:11
#06515:13
#06512:00000013
#06715:1300000000000013
#0671b:00130000
#06712:0013
#06718:00000013
#06818:0013
#06815:00000013
#06618:00000013
#06918:13
#0691b:00000013
#07118:1300000000000013
#07112:00130000
#0711b:0013
#07115:00000013
#07215:0013
#07218:00000013
#07015:00000013
#07812:00130000
#07815:0013
#07818:00000013
#08918:00000013
#08912:23
#09015:13
#09012:0000001300000000
#09112:00000013
#09118:23
#09218:13000013
#09215:00130000
#0921b:0013
#09318:0013
#09312:13
#0941b:13
#09412:00000013
#09516:00130000
#09818:00000013
#09815:13
#0991b:13
#09915:13
#09910:41
#0961b:13000013
#09618:0000001300000000
#09615:13000013
#09612:0000001300000000
#09718:13000013
#09712:13
#10118:00000013
#10112:23
#10215:13
#10212:0000001300000000
#10315:00000013
#1031b:23
#10418:13
#1041b:0000001300000000
#10712:13
#10718:00000013
#11615:0013
#11618:00000013
#1171a:2400000000000014
#11715:0000000000130000
#11718:0013
#11712:00140000
#11816:0014000000000000
#11812:0000001400000000
#1191a:2400000000000014
#11915:0000000000130000
#11918:0013
#11912:00140000
#12014:0014000000000000
#1201a:0000001400000000
#12115:0000000013000013
#12118:0000000000130000
#1211a:00140000
#12112:24
#12218:0013
#12215:00000013
#0341b:13
#03415:13
#03418:0000001300000000
#03412:0000001300000000
#05612:13
#05618:13
#05615:0000001300000000
#0561b:0000001300000000
#12518:0000000000000014
#1251a:00240000
#04015:0023
#04018:00000023
#04312:2400000000000026
#0431a:00240000
#04314:0024
#04318:0000000000240000
#02012:0024
#02018:0000002400000000
#02014:0024000000000000
#03915:23
#03910:41
#0095b:13
#00958:0000000000000053
#00658:0000005300000000
#01152:0000000000000053
#0055b:13
#0215b:0000000000000013
#0235b:53
#02358:0000002300000000
#02452:53
#02555:53
#02552:0053
#02758:63
#0275b:0000002300000000
#02855:53
#02955:53
#02952:00230000
#03058:63
#0305b:00230000
#03155:53
#03152:0000002300000000
#0355b:53
#03558:0000002300000000
#03655:63
#04352:0000000000000016
#10952:14
#11358:0000000000000053
#11558:0000000000000053
#12755:00630000
#12758:00630000
#00158:16
#00152:00000016
#00258:0016
#00352:0000000000000014
#06358:0000000000000063
#07552:63
#07556:0000002300000000
#0765b:53
#07657:0000002300000000
#07758:0000000000000013
#0795b:63
#07955:0053
#08052:53
#0805b:00000053
#08157:00230000
#08552:53
#08558:53
#08458:63
#08355:53
#0835b:53
#08858:63
#0885b:0000005300000000
#03955:53
#0415b:53
#04158:0000000000000023
#0875b:53
#09158:53
#00855:0000006300000000
#01455:0000006300000000
#01352:13
#01755:0000000000000063
#01752:13
#01658:0000005300000000
#02655:53
#0325b:53
#04552:63
#04555:0000002300000000
#0465b:63
#04758:63
#0475b:0063
#04955:53
#04952:0000002300000000
#05058:63
#04858:63
#0515b:00230000
#05158:63
#05252:00230000
#05255:53
#05358:63
#0535b:0000002300000000
#05752:63
#05755:0000002300000000
#05858:53
#05452:63
#06158:53
#0615b:00000023
#06555:63
#06552:00000023
#06755:0000000000000053
#06958:53
#0695b:00000023
#07158:0000000000000063
#07355:0013
#07352:13
#07452:13
#07455:0013
#09055:53
#09052:0000006300000000
#08952:63
#09358:0063
#09352:53
#0945b:63
#09452:00000063
#09556:00230000
#0995b:63
#09955:63
#09855:53
#09758:63
#09752:63
#10255:53
#10252:0000006300000000
#10458:63
#1045b:0000005300000000
#10152:63
#10555:63
#1035b:53
#10752:53
#10758:00000053
#11056:00000014
#1105a:0000005400000000
#11252:0000005400000000
#11256:00000014
#11852:0000006400000000
#11856:00000014
#1205a:0000006400000000
#12056:00000014
#12155:0000000000000063
#1175a:14
#03458:0000005300000000
#03452:0000005300000000
#05655:0000006300000000
#0565b:0000006300000000
#006380:0000001300000000
#0063b0:00000023
#008350:0000001300000000
#008320:00000023
#009380:0000000000000013
#0103b0:00230000
#011320:0000000000000013
#012350:00230000
#014350:0000001300000000
#014320:00000023
#016380:0000001300000000
#0163b0:00000023
#017350:0000000000000013
#018320:00230000
#020320:00001424
#022320:00001323
#0233b0:13000023
#023380:0000005300000000
#024320:13
#024350:0023
#025350:13
#025320:0033
#026350:33
#026320:0023
#027380:13000023
#0273b0:0000005300000000
#028350:13
#028320:0023
#029350:1323
#029320:00530000
#030380:1323
#0303b0:00530000
#031350:13000023
#031320:0000005300000000
#0323b0:13
#032380:0023
#034320:0000001300000000
#034350:00000023
#034381:0000001300000000
#0343b1:00000023
#0353b1:13000023
#035381:0000005300000000
#036351:13
#036321:0023
#037321:13
#037351:00230000
#0373b1:0013
#037381:00000023
#038351:13
#038321:00230000
#038381:0013
#0383b1:00000023
#039351:13
#040321:00230000
#0413b1:13
#041381:0000000000000053
#0423b1:00000023
#045321:13000023
#045351:0000005300000000
#0463b1:13
#046381:0023
#047381:13
#0473b1:0033
#048381:33
#0483b1:0023
#049351:13000023
#049321:0000005300000000
#050381:13
#0503b1:0023
#051381:1323
#0513b1:00530000
#052351:1323
#052321:00530000
#053381:13000023
#0533b1:0000005300000000
#054321:13
#054351:0023
#0563b1:0000001300000000
#056381:00000023
#056350:0000001300000000
#056320:00000023
#057320:13000023
#057350:0000005300000000
#058380:13
#0583b0:0023
#0593b0:13
#059380:00230000
#059320:0013
#059350:00000023
#060380:13
#0603b0:00230000
#060350:0013
#060320:00000023
#061380:13
#0613b0:00000053
#062380:0023
#063380:0000000000000013
#0643b0:00230000
#065350:13
#065320:00000053
#066350:0023
#067350:0000000000000013
#068320:00230000
#069380:13
#0693b0:00000053
#070380:0023
#071380:0000000000000013
#0723b0:00230000
#075320:13000023
#075360:0000005300000000
#0763b0:13000023
#076370:0000005300000000
#0793b0:13
#079380:00230000
#079350:0013
#079320:00000023
#080320:13
#080350:0000002300000000
#0803b0:00000013
#081370:00530000
#0813b0:00000023
#083350:13
#083320:0023
#0833b1:13
#083381:0023
#084381:13
#0843b1:0000002300000000
#085321:13
#085351:00000023
#085380:13
#0853b0:00000023
#086380:13230000
#086350:00001323
#0873b0:13
#087380:0023
#088380:13000023
#0883b0:0000003300000000
#089320:13
#089350:0023
#090350:13000023
#090320:0000003300000000
#091380:13
#0913b0:0023
#093320:13
#093350:00230000
#093380:0013
#0933b0:00000023
#0943b0:13
#094380:0000002300000000
#094320:00000013
#095360:00530000
#095320:00000023
#097380:13
#0973b0:0023
#097321:13
#097351:0023
#098351:13
#098321:0000002300000000
#0993b1:13
#099381:00000023
#099350:13
#099320:00000023
#100350:13230000
#100380:00001323
#101320:13
#101350:0023
#102350:13000023
#102320:0000003300000000
#1033b0:13
#103380:0023
#104380:13000023
#1043b0:0000003300000000
#105350:13
#105320:0023
#107320:13
#107350:00000023
#107381:00000013
#1083b1:00000023
#1103a1:0000001400000000
#110361:00000024
#112321:0000001400000000
#112361:00000024
#113381:0000000000000013
#1143b1:00230000
#115381:0000000000000013
#1163b1:00230000
#118321:0000001400000000
#118361:00000024
#1203a1:0000001400000000
#120361:00000024
#121351:0000000000000013
#122321:00230000
#1253a1:0000140000240000
#125320:0000140000240000
#127350:00130000
#128320:0023
#127381:00130000
#1283b1:0023
