This file was generated by Ched 2.7.0.0.
#TITLE ""
#ARTIST ""
#DESIGNER ""
#DIFFICULTY 0
#PLAYLEVEL
#SONGID ""
#WAVE ""
#WAVEOFFSET 0
#JACKET ""
#REQUEST "ticks_per_beat 480"
#00002: 4
#BPM01: 240
#00008: 01
#TIL00: ""
#HISPEED 00
#MEASUREHS 00
#12712:0000160000000012
#1271c:0000000000000012
#12718:00260000
#09412:24181400
#09416:1414000000001800
#0941b:0023
#10312:2418001c
#10316:0024
#09312:2400180000140000
#0931a:1414000024000000
#09316:00001418
#10412:241c001c
#10416:1424
#1041a:0014
#10418:0014000000000000
#09612:00180018
#0961a:24140000
#09616:1414000024000000
#09512:24181414
#09516:14002418
#0951a:00140000
#09518:0014001400000000
#00515:1613
#00518:0000000000130000
#00516:0000000000000013
#0051b:00230023
#00618:0013000000130000
#00616:0000001300000000
#00612:00000000000000000013000000000000
#0061b:00230023
#00716:1400000000000013
#00715:0013
#00718:0000000000130000
#0071b:00230023
#00818:0013000000130000
#00812:0000001300000000
#0081b:00230023
#00916:1400000000000013
#00912:0000130000130000
#00918:0013
#0091b:00230023
#01016:00141400
#01017:0013000000000000
#0101b:00230023
#01116:1400000014140024
#01112:0000130000000013
#0111b:00230023
#0121b:00130000
#01216:0000001300000000
#01219:0013
#01217:00000013
#01214:0000000000130000
#01212:0000000000000013
#01315:1600000000130000
#01318:0013
#01317:0000000000000013
#01312:00230023
#01415:0013000000130000
#01417:0000001300000000
#0141b:00000000000000000013000000000000
#01412:00230023
#01516:14
#01518:0013
#01515:0000000000130000
#01517:0000000000000013
#01512:00230023
#01615:0013000000130000
#0161b:0000001300000000
#01612:00230023
#01716:1400000000000024
#0171b:0000130000130013
#01715:0013
#01712:00230023
#0191b:0000000013000013
#01918:0000130000130000
#01912:1c00000013000023
#01915:00130013
#0201b:0013
#02018:00130013
#02015:0023002300000000
#02012:0023
#02112:2300000013000026
#02115:0000130000130000
#0211b:2313
#02118:0000130000001316
#02218:00130013
#02215:0000001300130013
#02212:0013
#0221b:0013000013000000
#02318:16
#02312:13
#02317:00130000
#0231b:0000133300000000
#02315:00000016
#02310:41
#00115:0000001616000000
#0011b:00000000000000130000000000000000
#00112:2c00002c
#00215:1616000000000000
#00212:00130000000000002600000016000000
#00218:0026
#00018:0000000000001214
#00016:00000000000000000000000000120000
#00014:00000000000000000000000000000014
#00412:0016160013000000
#00418:00000016000000000000130000000000
#00415:0000001600001300
#0041b:0000000000000013
#09816:14180000
#09812:0014000024001800
#0981a:2414
#09818:0000000000140000
#09716:00181400
#09712:00002418
#0971a:24
#10016:24182400
#10012:00000018
#10014:0000001400000000
#09916:00182400
#09912:00000018
#09918:0000000000000014
#0991a:24
#09910:41
#10916:0000000014140013
#1091b:0000000000000013
#10917:00130000
#10912:26230023
#10918:26
#11012:0013000000130000
#11016:0000001414000014
#1101b:00230023
#1131b:0000130000000013
#11316:0000000014140013
#11312:00230023
#11318:23
#11315:23
#11310:41
#11416:0000001400140014
#11412:0013000013000000
#1141b:00230023
#11518:00120000
#11512:2400000014000014
#1151a:2400000014000014
#11516:0000220000142400
#11612:000014181c0000000000000000000000
#1161b:0000001200000000
#11615:0012
#11613:00000012
#11619:0000000000120000
#11617:0000000000000012
#10116:00182400
#10112:0000001c
#1011a:24
#10212:001c141c
#10216:1424
#10214:0014000000000000
#1021a:24
#10516:14000013
#1051b:13
#1051a:0014
#10517:00130000
#10512:00140013
#10617:13
#10612:00000000001600000000000024000000
#10614:0024
#10618:0000262600240000
#1061a:0000000000000024
#10715:00130000
#10718:00130000
#10712:2c00000014000014
#10716:0000000000140018
#1071a:00000014
#10818:00000016000000000000000000000000
#10812:0016161c00000000
#10813:001a
#10814:0000000000180000
#10815:00000016
#10816:0000000000000014
#1111b:1313
#11116:2400000014140000
#11117:0000000000000013
#11112:00230023
#11216:0013000014140000
#11212:0000001300001300
#1121b:00230023
#11716:0000130014140000
#11712:2600000000000013
#11717:0000000000000013
#1171b:00230023
#11718:26
#1181b:0013000000130000
#11816:0000001414000014
#11812:00230023
#12112:0000130000000014
#12116:0000000014140024
#1211b:00230023
#12115:23
#12118:23
#12212:00001c1600000016
#12216:00000018000000000000160000000000
#1221a:0014000000000000
#12218:0016
#12214:00000016
#11912:1313
#11916:2400000014140013
#1191b:00230023
#12017:0013000000000000
#12016:0000000014140000
#1201b:0000001300001300
#12012:00230023
#12319:0012
#12315:0012
#12312:1414000000002828
#1231a:0000000000001414
#12316:2828000000000000
#12415:00120000
#12419:00120000
#12412:0000000014140000
#12416:0000000028280000
#12515:12
#12519:12
#12516:0000000014000014
#12512:00002c0000240000
#1251a:0000000000240000
#12612:1400140000280028
#1261a:0000000000140014
#12616:28281400
#07916:13120000
#07912:2313
#0791c:00000012
#0791b:00130000
#07917:00000013
#0791f:21
#08017:13
#08016:00130000
#08012:0000000000130000
#0801b:0000001300001300
#08010:41
#08117:1313
#0811b:00130000
#08112:133333333333000000000000133333333333000000000000
#08212:1300150000170000
#08217:1300001300001300
#08312:13002c13
#0831b:00130000
#08317:0000001700000000
#08416:1300001300001300
#08419:00150000
#08417:0000000000170000
#08617:13
#08612:0000130000000013
#0861b:1313
#08618:00120000
#08615:0000000000161600
#08516:13000014
#08517:00130000
#0851b:0000133300000000
#08512:0000003300000000
#08712:26181400
#0871a:00000014
#08717:00000012
#0871c:00120000
#08718:26
#08816:1800000000180000
#08812:0000131800000000
#0881a:00000014
#0901b:00130000
#09012:1800000000181400
#09016:0000001800000000
#09212:14000000001600001400000000000000
#09218:0000161600000014
#09214:0000000000140000
#09216:00000014
#09116:00140000
#09112:2613
#0911b:00130013
#09118:26
#00312:160000000000121c
#00316:00120000
#00314:0012
#01812:00130000
#01814:0013
#01816:00000013
#0181b:0000000000000013
#01819:0000000000130000
#01817:0000001300000000
#02516:1313
#02512:13130013
#02517:00000013
#02716:13
#0271b:00130000
#02717:00130000
#02715:00000016
#02712:0000003300000000
#03116:0000001400001300
#0311b:00130000
#03112:1313
#03117:0013
#03317:1313
#03312:1313
#03316:00000013
#0331b:00130000
#03216:00130013
#03212:1300003300000000
#03217:1300003300000000
#0321b:00130013
#03416:1400001300001300
#0341a:0000140000140000
#03517:13
#0351b:0000001300000000
#03512:00000014
#0361a:14
#03616:13
#03615:00000013
#03618:00000013
#0371b:1313
#03719:00120000
#03714:00000012
#03712:13
#0381c:00120000
#03812:14000012
#03815:00000014
#03817:00140000
#0381a:0014
#03912:14
#0391b:0000000000130000
#03916:0000130025130000
#03918:0000000000000016
#03919:00150000
#03910:41
#04015:0013001300002300
#04018:0000230000130013
#0401b:0023
#04012:0023
#0411a:14
#04112:1400150000130016
#04117:0000130000130000
#04115:0025
#04212:001c002600161600
#04218:00000000000026000000001600000000
#04512:16131314
#0451b:1313
#04516:0000001400000000
#05516:1313
#0551b:1313
#05517:00130013
#05512:00130000
#05616:14
#05612:0000140000140000
#05617:0000001300001300
#06012:00131300
#06016:00130000
#0601b:1313
#06018:00000014
#06014:00000014
#0431a:14
#04312:2800140000260000
#04318:0000000000160016
#04316:00282400
#04415:00130013
#04418:0000001300130013
#0441b:0013
#04412:0013000013000000
#06112:001c0013
#06116:0000000014000023
#0611b:0000000013130000
#06119:0000000000000015
#0611f:11
#06217:0015000000000000
#06215:0000001500000000
#0621b:0000000000130000
#06212:0000002300001800
#06214:0023000000000000
#06312:14161600
#0631a:14
#06318:00160016
#06316:0000000000000013
#06512:14001c0013130015
#06518:16
#06516:0014
#0651b:00000013
#06517:0000000000000023
#06418:00161600
#06412:0000001600000016
#06416:0000000000160000
#06414:00000016
#06614:0015000000000000
#06616:0000001500001800
#06612:0000000000130000
#06619:0023000000000000
#0661b:0000002300000000
#0671a:14
#06712:14160016
#06718:00161600
#06717:0000000000000013
#0691a:14
#06912:161c0013
#06916:0000000014000023
#0691b:0000000013130000
#06919:0000000000000015
#06812:00161600
#06818:0000001600000016
#06814:0000000000160000
#06816:00000016
#07012:0015000000000000
#07019:0000001500000000
#0701b:0000000000130000
#07014:00000018
#07017:0023000000000000
#07016:0000002300000000
#07112:14160016
#0711a:14
#07118:00161600
#0711b:0000000000000013
#07212:00150016
#07218:0000001600000016
#07214:0000000000160000
#07216:0016
#07316:14130014
#0731a:00140000
#07312:2414
#0731b:00000013
#0741a:14
#07416:00141400
#07412:00130014
#07417:00000013
#0751a:14
#07512:00130000
#07516:0000001814000000
#07518:00000016
#07612:1400001800001600
#0761b:00130000
#07616:1414
#07712:2c141600
#07718:0000160000001616
#0771a:0014
#07812:0016160000001500
#07818:00000016000000000000000000000000
#07814:0015
#07817:0000000000150000
#07819:0000000000000015
#07816:0000001400000000
#02416:13130000
#0241b:13
#02412:0000133300000000
#02415:00000016
#0261b:13000013
#02612:00131300
#02616:00000013
#02817:13
#02812:00130000
#02816:00130000
#0281b:1300003300000000
#02815:00000016
#02917:1313
#0291b:13130013
#02916:00000013
#03012:13000013
#0301b:00131300
#03017:00000013
#05316:0000001413000000
#05312:00130000
#0531b:1313
#05317:00000013
#05310:41
#0541b:1300003300000000
#05416:1300003300000000
#05417:00130013
#05412:00130013
#05716:13
#05712:0000001300000000
#0571a:00000014
#05816:13
#05812:13
#05817:0013
#05815:00130000
#05818:00000013
#0591b:00130013
#05917:00000013
#05916:13130000
#05912:0013
#08916:00180000
#0891a:2414
#08912:24120014
#08917:00000012
#05112:1313
#0511b:00130013
#05117:13
#05116:00130000
#0521b:13000013
#05212:00130000
#05217:00131300
#0461a:14000014
#04612:1313
#0461b:00131300
#04616:0000001400000000
#0471b:1313
#04712:00130013
#04716:13
#04717:00130000
#04812:13000013
#0481b:00130000
#04816:00131300
#04917:1313
#0491b:00131300
#04916:0000001400000000
#0491a:00000014
#05016:1300001413000000
#05012:14131314
#12752:0000660000000022
#1275c:0000000000000022
#12758:00660000
#09452:00180000
#09456:00000018
#10352:0048003c
#09352:00180000
#09356:00000018
#10452:004c003c
#09552:00480000
#09556:00000038
#09652:00480038
#00656:0000006300001300
#00652:00000000000000000023000000000000
#00555:16
#00556:0000000000000053
#00852:0000006300000000
#00756:0000000000000053
#00956:1400000000000053
#01152:0000000000000053
#01156:0000000000000014
#01355:16
#01357:0000000000000063
#01457:0000005300001300
#0145b:00000000000000000023000000000000
#0165b:0000005300000000
#01557:0000000000000063
#01756:1400000000000014
#0175b:0000000000000063
#02358:16
#02352:53
#02357:00230000
#0235b:00230000
#0195b:0000000000000053
#01952:1c
#02158:0000000000000016
#02152:0000000000000056
#00152:1c00001c
#09856:00180000
#09852:00000018
#09756:00180000
#09752:00000018
#10056:00380000
#10052:00000048
#09956:00380000
#09952:00000048
#1095b:0000000000000063
#10957:00530000
#10958:16
#10952:16
#1135b:0000000000000063
#11358:13
#11355:13
#1155a:1400000000000064
#11552:1400000000000014
#10156:00480000
#10152:0000003c
#10252:004c003c
#10556:54001453
#1055a:0014
#10552:00240000
#10657:63
#10752:1c00000000000014
#10756:0000000000000058
#1115b:53
#11157:0000000000000053
#11252:00000053
#11752:1600000000000053
#11756:00630000
#11758:16
#12152:0000000000000054
#12158:13
#12155:13
#12156:0000000000000014
#11952:63
#11956:0000000000000063
#1205b:00000063
#12552:001c0000
#12652:0000000000180018
#12656:18180000
#07956:53
#07952:1353
#0795b:00230000
#07957:00000023
#08057:53
#0805b:0000005300005300
#08157:5353
#0815b:00230013
#08152:5353
#08156:00130013
#08257:5300005300005300
#0835b:13
#08352:53
#08456:6300006300006300
#08657:63
#08652:00230000
#08556:5333
#08557:00230000
#0855b:00230000
#08552:0033
#00352:000000000000001c
#00258:0066
#00252:0016
#12356:0018000000000000
#12352:0014000000000018
#1235a:0000000000000014
#12456:0000000000180000
#12452:0000000000140000
#02556:6363
#02552:00000023
#02756:53
#0275b:00230000
#02757:00230000
#03152:53
#03157:0053
#0315b:43
#03256:00230053
#03257:5333
#0325b:00230000
#03252:0033
#0335b:00530000
#03352:23
#03357:0023
#03456:0000005300005300
#03557:53
#0355b:0000002300000000
#03656:53
#03855:00000024
#03857:00240000
#03852:54
#0385a:0054
#03952:3400000000000013
#03958:0000000000000016
#03956:0000530000530000
#0395a:44
#0415a:14
#04152:1400000000000016
#04157:0000630000630000
#0415b:0000000000000013
#04252:001c001600000000
#04258:0000001600000000
#04552:16
#0455b:6353
#05552:00630000
#05556:0023
#05657:0000006300006300
#06056:00230000
#06054:00000024
#06058:00000024
#0605b:5353
#06052:0053
#0435a:14
#04352:0000140000000016
#04358:0000000000160066
#06159:0000000000000045
#06152:16
#06158:16
#06257:0045000000000000
#06255:0000004500000000
#06252:0000005300001800
#06352:0056
#06358:00560000
#06356:0000000000000053
#06552:1400000000000035
#06558:16
#06654:0035000000000000
#06656:0000003500001800
#0665b:0000005300000000
#06752:00660000
#06758:0066
#06757:0000000000000063
#0695a:14
#06952:16
#06959:0000000000000045
#07052:0035000000000000
#07059:0000004500000000
#07054:00000018
#07056:0000005300000000
#07152:00560000
#07158:0066
#0715b:0000000000000063
#07352:1454
#07356:54001424
#0735a:00240000
#0745a:6444
#07456:00246400
#07452:34000024
#07556:1454
#0755a:64
#07652:54
#07656:0064
#07752:1c00000000000016
#07758:0000000000000016
#0245b:63
#02456:00230000
#02452:00230000
#0265b:63
#02652:0063
#02656:00000023
#02857:63
#02852:00230000
#02856:00230000
#02957:5353
#0295b:00000023
#03052:53
#03057:00000023
#0305b:0053
#0535b:63
#05356:0063
#05352:13
#05456:6343
#05457:00230000
#05452:00230000
#0545b:0043
#05756:63
#05752:0000002300000000
#05856:63
#05857:0053
#0595b:00230000
#05957:00000023
#05956:53
#05952:0053
#08757:00000052
#0875c:00520000
#08758:16
#08752:16
#08957:00000062
#08952:00620000
#09152:1653
#0915b:00530053
#09158:16
#05152:0053
#05157:53
#0515b:00230000
#0525b:53
#05257:00235300
#04652:5363
#0475b:0063
#04756:63
#04752:00230000
#04852:63
#04856:00236300
#04957:6353
#05056:5363
#02052:0053
#03752:53
#0375b:0053
#002380:0016
#0033c0:00000022
#005320:13230000
#005360:0000000000000013
#006320:0023000000000000
#006360:0000001300002300
#006320:00000000000000000053000000000000
#007320:13230000
#007360:0000000000000013
#008320:0023000000000000
#008320:0000001300000000
#008350:0000000000230000
#008320:00000013
#009320:23
#009360:0000000000000013
#010320:0023000000000000
#010320:0013
#010360:00000033
#011320:23
#011320:0000000000000013
#012360:00240000
#0133b0:13230000
#013370:0000000000000013
#0143b0:0023000000000000
#014370:0000001300002300
#0143b0:00000000000000000053000000000000
#0153b0:13230000
#015370:0000000000000013
#0163b0:0023000000000000
#0163b0:0000001300000000
#016380:0000000000230000
#0163b0:00000013
#0173b0:23
#0173b0:0000000000000013
#018360:00240000
#0193b0:0000000000000013
#020380:0023000000000000
#020320:0013
#020350:00000023
#021320:0000000000000016
#022320:0023000000000000
#023320:1323
#023370:00530000
#0233b1:0000133300000000
#023361:0023
#0243b1:1323
#024361:00530000
#024320:0000133300000000
#024370:0023
#025360:13
#0253b0:0023
#025361:0013
#025321:00000053
#026361:23
#0263b0:13
#026360:0023
#026321:0013
#026361:00000053
#027321:23
#027360:1323
#0273b0:00530000
#027371:00130000
#027321:0000003323000000
#028371:1323
#028321:00530000
#028360:00130000
#0283b0:0000003323000000
#029370:13
#029320:0023
#029371:0013
#0293b1:00000053
#030371:23
#030320:13
#030370:0023
#0303b1:0013
#030371:00000053
#0313b1:23
#031320:13
#031360:00230000
#031370:0013
#0313b0:00000023
#032370:1300003323000000
#0323b0:00530000
#032361:00130000
#032321:0000003323000000
#032361:00000013
#033321:53
#033361:00230000
#0333b0:00130023
#033370:0053
#034320:13230000
#034360:0000001300000000
#034320:0000000000230000
#034360:00000013
#035320:23
#035371:13000023
#0353b1:0000005300000000
#035360:00120000
#035340:0000003200000000
#035320:0022
#036361:13
#036321:0023
#036380:00120000
#0363a0:0000003200000000
#0363c0:0022
#037320:13
#037370:0023
#0373b1:0013
#038361:23
#038320:1424
#038370:00540000
#0383a1:0014
#038351:00000054
#0393a1:24
#039361:00130000
#039321:0023
#039361:0000000000130000
#039321:0000000000000023
#041371:00130000
#0413b1:0023
#041371:0000000000130000
#0413b1:0000000000000023
#043321:0000000000160026
#043380:0000000000000016
#0443b0:0023000000000000
#0453b0:13
#045360:00230000
#0453b0:0013
#045360:00000023
#046320:13
#046370:00230000
#046320:0013
#046370:00000023
#047360:1323
#047320:00530000
#0473b1:0013
#048361:23
#048320:1323
#048360:00530000
#048361:0013
#0493b1:23
#049370:13
#049320:00230000
#049370:0013
#049320:00000023
#050360:13
#0503b0:00230000
#050360:0013
#0503b0:00000023
#051370:1323
#0513b0:00530000
#051321:0013
#052371:23
#0523b0:1323
#052370:00530000
#052371:0013
#053321:23
#0533b0:13
#053370:00230000
#053360:0013
#053320:00000023
#054360:1300003323000000
#054320:00530000
#054371:00130000
#0543b1:0000003323000000
#055321:00130023
#055361:0053
#0563b1:13230000
#056371:0000001300000000
#0563b1:0000000000230000
#056371:00000013
#0573b1:23
#057360:13000023
#057320:0000005300000000
#057381:00120000
#0573a1:0000003200000000
#0573c1:0022
#058360:13
#0583b0:0023
#058371:0013
#059321:23
#059360:1323
#0593b0:00530000
#059321:0013
#059371:00000053
#060321:23
#0603b0:1333
#060360:00530000
#060340:00000054
#061380:26
#060321:0013
#060381:00000054
#061321:26
#062321:0000001300000000
#062361:0000000000230000
#063381:00160000
#0633c1:0022
#063320:0016
#063360:00000022
#063360:0000000000000013
#064320:00230000
#0663b0:0000001300000000
#066370:0000000000230000
#067320:00162200
#067381:00001622
#067371:0000000000000013
#0683b1:00230000
#070361:0000001300000000
#070321:0000000000230000
#071321:00160000
#071361:0022
#071380:00001622
#0713b0:0000000000000013
#072370:00230000
#073360:1424
#0733a0:00540000
#073321:0014
#073361:00000054
#074321:24
#0743a0:1424
#074360:00540000
#074361:0014
#074321:00000054
#075361:24
#0753a0:14
#075360:00240000
#075360:0014
#075320:00000024
#076320:14
#076360:00240000
#076360:0014
#0763a0:00000024
#077320:0000000000001626
#079360:1323
#0793b0:00530000
#079321:0013
#079371:00000053
#080321:23
#080370:13
#0803b0:00230000
#0803b0:0000001300000000
#080370:0000000000230000
#0803b0:00000013
#081370:5353
#0813b0:00530023
#081321:133333333333000000000000000000000000000000000000
#081361:00230000
#081321:000000000000000000000000133333333333000000000000
#081361:00000023
#082371:13
#0823b1:00230000
#082371:0000001300000000
#0823b1:0000000000230000
#082371:00000013
#0833b1:23
#083320:13
#083370:00230000
#0833b0:00000013
#0843b0:23
#084361:13
#084321:00230000
#084361:0000001300000000
#084321:0000000000230000
#084361:00000013
#085321:23
#085360:1323
#0853b0:0000333300000000
#085371:00130000
#085321:0000003323000000
#086371:1323
#086321:00530000
#0873c1:00120000
#087371:0022
#087371:00000012
#088321:22
#089321:00120000
#089371:0022
#089371:00000012
#0903c1:22
#0913b1:00130000
#091361:0023
#091320:0013
#091370:00000023
#0913b1:00000013
#092361:23
#0963a1:00001424
#097321:14240000
#099321:14240000
#0993a1:00001424
#100321:14240000
#1003a1:00001424
#101321:1424
#1033a1:1424
#105361:1424
#105321:00540000
#105361:00000013
#1063b1:23
#106370:13
#106320:00230000
#107360:0000000000000018
#1083a0:0024000000000000
#109370:00130000
#1093b0:0023
#1093b0:0000000000000013
#110370:0023000000000000
#1113b0:13
#111370:00230000
#111370:0000000000000013
#1123b0:0023000000000000
#112320:00000013
#113350:23
#1133b0:0000000000000013
#114370:0023000000000000
#1153a0:0000000000000014
#116360:0024000000000000
#117360:00130000
#117320:0023
#117320:0000000000000013
#118360:0023000000000000
#119320:13
#119360:00230000
#119360:0000000000000013
#120320:0023000000000000
#1203b0:00000013
#121380:23
#121320:0000000000000014
#122360:0024000000000000
#127320:0000160000000052
#128360:0022
#127381:00160000
#1273c1:0000000000000052
#128381:0022
