This file was generated by Ched 2.7.0.0.
#TITLE ""
#ARTIST ""
#DESIGNER ""
#DIFFICULTY 0
#PLAYLEVEL
#SONGID ""
#WAVE ""
#WAVEOFFSET 0
#JACKET ""
#REQUEST "ticks_per_beat 480"
#00002: 4
#BPM01: 240
#00008: 01
#TIL00: ""
#HISPEED 00
#MEASUREHS 00
#00312:00140000
#00318:0014
#0051a:14
#00514:0014
#00618:14
#00612:0014
#00712:0014
#00718:14
#0081a:14
#00814:0014
#01312:14
#01318:0014
#0151a:14
#01514:0014
#01714:14
#0171a:0014
#0191a:1414
#01914:00140014
#02018:1414
#02012:00140014
#0211a:14
#02118:0000340034340014
#02512:14
#02518:0014
#02614:14
#0261a:0014
#02914:14
#0291a:0014
#03012:14
#03018:0014
#03314:14
#0331a:0014
#03412:14
#03418:0014
#03712:14
#03718:0014
#03814:14
#0381a:0014
#03914:14
#03910:41
#04012:14
#04118:0014
#04212:14
#0421a:0014
#04312:14
#0431a:0014
#0471a:14
#04714:0014
#04818:14
#04812:0014
#05118:14
#05112:0014
#0521a:14
#05214:0014
#05518:14
#05512:0014
#0561a:14
#05614:0014
#0591a:14
#05914:0014
#06018:14
#06012:0014
#06118:14
#0611f:11
#0621a:14
#06312:0014
#06418:14
#06414:0014
#0651a:14
#06618:14
#0671a:0014
#06814:14
#06818:0014
#06912:14
#07014:14
#07112:0014
#07218:14
#07214:0014
#0771a:14
#07712:0014
#07818:1414
#07814:00140014
#07912:0014
#0791a:24
#0791f:21
#08018:14
#08012:0014
#08010:41
#0811a:14
#08212:14
#08218:0014
#08312:14
#08418:14
#08414:0014
#0851a:14
#08612:14
#08812:14
#08818:0014
#0901a:14
#09014:0014
#09214:1414
#09218:00140014
#0931a:0014
#09312:24
#09414:14
#0941a:0014
#09512:14
#0961a:14
#09614:0014
#0971a:14
#09814:14
#09818:0014
#09912:14
#09910:41
#1001a:14
#1021a:14
#10214:0014
#10412:14
#10418:0014
#10618:1414
#10614:00140014
#00912:14
#00918:0014
#0091a:14
#01014:14
#0101a:0014
#0111a:0014
#01114:14
#01212:14
#01218:0014
#10914:0014
#11018:14
#11012:0014
#11118:14
#11112:0014
#1121a:14
#11214:0014
#1131a:14
#11312:14
#11318:0014
#11310:41
#11414:14
#1141a:0014
#11514:14
#1151a:0014
#11612:14
#11618:0014
#11712:14
#11718:0014
#1191a:14
#11914:0014
#12114:14
#1211a:0014
#00118:26
#00112:00000026
#00218:0026
#12318:26
#12312:00000026
#12418:0026
#12512:00260000
#00414:0034
#01412:00343400
#0161a:00343400
#01814:00343400
#02218:00343400
#11814:00343400
#12018:00343400
#12212:00343400
#02310:41
#05310:41
#0215a:64
#02158:0000000000000024
#03954:64
#04052:24
#06158:54
#0625a:24
#06658:24
#0655a:64
#06952:54
#07054:24
#0795a:14
#0815a:64
#08352:64
#0855a:64
#08558:0014
#08652:64
#08654:0014
#09552:54
#0975a:54
#09952:54
#09954:0014
#1005a:54
#10058:0014
#09352:14
#04454:0014
#0735a:0014
#07454:0014
#07558:0014
#07652:0014
#003340:0000000000001434
#004340:00343400
#004320:00000024
#014340:14
#014320:00343424
#016380:14
#0163a0:00343424
#018320:14
#018340:00343424
#0213a0:14
#021380:0000340034340034
#022380:00343400
#0223a0:00000024
#023320:14
#023340:00000024
#0243a0:14
#024380:00000024
#027340:14
#027320:00000024
#028380:14
#0283a0:00000024
#031320:14
#031340:00000024
#032380:14
#0323a0:00000024
#035340:14
#035320:00000024
#0363a0:14
#036380:00000024
#039340:14
#040320:54
#041340:24
#044340:1424
#0453a0:14
#045380:00000024
#046320:14
#046340:00000024
#049380:14
#0493a0:00000024
#050340:14
#050320:00000024
#0533a0:14
#053380:00000024
#054340:14
#054320:00000024
#057380:14
#0573a0:00000024
#058320:14
#058340:00000024
#061380:14
#0623a0:54
#063380:24
#0653a0:14
#066380:54
#0673a0:24
#069320:14
#070340:54
#071320:24
#0733a0:1424
#074340:1424
#075380:1424
#076320:1424
#0813a0:14
#081380:0024
#083320:14
#083340:0024
#0853a0:14
#085380:0024
#086320:14
#086340:0024
#0873a0:14
#087380:0024
#087341:14
#087321:0024
#089321:14
#089341:0024
#089380:14
#0893a0:0024
#0913a0:14
#091380:0024
#091341:14
#091321:0024
#095321:14
#095341:0024
#0973a1:14
#097381:0024
#099321:14
#099341:0024
#1003a1:14
#100381:0024
#101321:14
#101341:0024
#101380:14
#1013a0:0024
#1033a0:14
#103380:0024
#103341:14
#103321:0024
#105321:14
#105341:0024
#105380:14
#1053a0:0024
#1073a0:14
#107380:00000034
#1093a0:24
#118320:14
#118340:00343424
#1203a0:14
#120380:00343424
#122340:14
#122320:00343424
#126380:1600360036360036
#127380:00360000
#128380:0026
