This file was generated by Ched 2.7.0.0.
#TITLE ""
#ARTIST ""
#DESIGNER ""
#DIFFICULTY 0
#PLAYLEVEL
#SONGID ""
#WAVE ""
#WAVEOFFSET 0
#JACKET ""
#REQUEST "ticks_per_beat 480"
#00002: 4
#BPM01: 118
#00008: 01
#TIL00: ""
#HISPEED 00
#MEASUREHS 00
#0001a:14
#00014:0014
#0011a:14
#00114:0014
#00218:14
#00212:0014
#00318:14
#00312:0014
#0041a:14
#00514:14
#00618:14
#00712:14
#0081a:14
#00810:41
#0091a:14
#01014:14
#01114:14
#01218:14
#01318:14
#01412:14
#01512:14
#02018:14
#02118:14
#02212:14
#02312:14
#0241a:14
#02410:41
#0251a:14
#02614:14
#02714:14
#02818:14
#02912:14
#03214:14
#0331a:14
#03612:0016
#03618:26
#03610:41
#03718:16
#03712:0016
#04012:0016
#04018:26
#04118:16
#04112:0016
#04218:1616
#04312:1626
#04518:14
#04614:14
#0471a:14
#05613:14
#05619:14
#05718:0016
#05712:26
#0571f:21
#05710:0041
#05812:16
#05818:0016
#06118:0016
#06112:26
#06212:16
#06218:0016
#06312:1616
#06418:1626
#07014:14
#07018:0014
#0481f:11
#01710:41
#03010:41
#0163a0:14
#0173a0:24
#018340:14
#019340:24
#030380:14
#031380:24
#034340:14
#035340:24
#038380:1626
#039320:1626
#043320:00001626
#048320:14
#049320:24
#050380:14
#051380:24
#052340:14
#053340:24
#0543a0:14
#0553a0:24
#059320:1626
#060380:1626
#064380:00001626
#066320:14
#067320:24
#068380:14
#069380:24
#071340:00001400003400002400000000000000
