This file was generated by Ched 2.7.0.0.
#TITLE ""
#ARTIST ""
#DESIGNER ""
#DIFFICULTY 0
#PLAYLEVEL
#SONGID ""
#WAVE ""
#WAVEOFFSET 0
#JACKET ""
#REQUEST "ticks_per_beat 480"
#00002: 4
#BPM01: 118
#00008: 01
#TIL00: ""
#HISPEED 00
#MEASUREHS 00
#0041a:00000014
#00412:13000000000000000013000000000000
#00416:0000001300000000
#00418:00000013000000000000000000000000
#0041b:23
#00512:13000014
#0051b:13000000000000000013000000000000
#00517:0000001300000000
#00515:00000013000000000000000000000000
#00612:13000000000000000013000000000000
#00616:0000001300000000
#00618:00000013000000000000000000000000
#0061b:1300001300000000
#00617:00000000000000000013000000000000
#00712:1313
#00716:00130000
#00717:2323
#0071b:00230000
#00815:0013000000000013
#00818:00000000130000130000130000000000
#00812:2300001300000000
#0081b:23000000000000000000000000000013
#00810:41
#00915:13001313
#00918:00000013000000000000001300000000
#00912:00000000130000000000000000000013
#0091b:00000000000000130000000000130000
#01015:00001300000000130000001300000000
#0101b:00001300000013000013000000000000
#01018:00130000
#0101a:0000000000001414
#01012:00000000130000000000000000140014
#0111a:14
#01116:00140000
#01115:00000000000013000013000000130013
#01118:00000000000000130000130000001300
#0111b:00000013
#01112:00000000000000000000001300000000
#01218:0013000000000013
#01215:00000000130000130000130000000000
#0121b:2300001300000000
#01212:23000000000000000000000000000013
#01318:13001313
#01315:00000013000000000000001300000000
#0131b:00000000130000000000000000000013
#01312:00000000000000130000000000130000
#01417:0013130000000000
#01412:00000013000000000000000000000000
#01416:0000001400131314
#0141b:00000000000000000000001300000000
#01516:001400001400001400000000
#0151a:000014000014000014000000
#01512:24242413
#0151b:0000000000000013
#0161b:00130013
#01618:0000000013130000
#01612:0013
#01615:23
#01718:1300000013130000
#01715:00001300000000130013000000001300
#01712:00140014
#0171a:00240024
#01710:41
#01815:1300000013130000
#01818:00001300000000130013000000001300
#0181b:13
#0181a:00140014
#01812:00240024
#01916:1313
#0191b:13
#01917:00130000
#01914:0000001300000000
#01919:0013000000130000
#01918:0000000000001313
#01915:00000000000000000000000000130013
#02019:0013000000000000
#02017:00000000130000330000000000000000
#02012:2300130000000013
#02016:0000000000140000
#0201b:23000000000000000000000000000013
#02118:00000013130000000000001300000000
#02112:13000000000000131300000013000000
#02117:00000000000000000000000000130000
#02116:00000000000000000000000000000013
#02218:00001300000000130000001300000000
#02212:00001300000013000013000014001400
#02215:00130000
#0221a:00000000000000000000000000140014
#0221b:00130000
#02414:0013000000000000
#02416:00000000130000330000140000000000
#0241b:2300130000000013
#02412:23000000000000000000000000000013
#02410:41
#02515:00000013130000000000131300000000
#0251b:13000000000000131300000013000000
#02516:00000000000000000000000000130000
#02517:00000000000000000000000000000013
#02612:0013130000000014
#02617:00000013000000000000000000000000
#0261a:0000001400000000
#0261b:0000000000131300
#02616:00000000000000000000001300000000
#02716:001400001400001400000000
#02712:000014000014000014000000
#0271a:24242424
#02819:0013000000130000
#02816:0000001300000000
#02814:00000000000000000013000000000000
#02817:0000000000000013
#0281b:00000000130000130000000000000000
#0291b:13001300000000000013001300000000
#02915:00130013000000000000130013000000
#02918:0000131300000000
#02912:00000000001300130000000000000000
#03016:13000000000000130000000000000000
#0301b:1300001300000000
#03019:0013000000000000
#03012:00000000130000000000001300001300
#03017:0000130000130000
#03014:0013000000000000
#03010:41
#03112:0013000000130024
#0311b:0000001300000000
#0311a:00000024
#03118:23230000
#03115:2323
#03418:1300130013130000
#0341b:0013001300001313
#03415:00000013000000130000000000130013
#03412:00000000001300000013001300000000
#03612:13000000130000001300000000130000
#03618:00000000000000000013001300001300
#03615:00000000000000000000000000000013
#0361a:0014001400000000
#03616:0000003300000000000000330000000000000000000000000000000000000000
#03610:41
#03815:0000130000130013
#03818:00000000001300000000001300000013
#03812:1400001400001300
#0381b:00000000000000000000000000130000
#0381a:0014000014000000
#0391b:00001300130000000013000000000000
#03912:1300001313002400
#03915:0000000000130000
#03918:00000000000000000000001300000000
#0391a:0000000000000024
#03916:0000003333000000000000000000000000000000000000000000000000000000
#03917:0000000000000000000000333300000000000000000000000000000000000000
#04016:13130000
#0401b:1300130000000013
#04012:0000003300000000000000330000000000000000000000000000000000001300
#04015:00000000000000001300000000130000
#04018:00000000000000000013001300000000
#04017:0013001300000000
#0371b:13000000130000001300000000130000
#03715:00000000000000000013001300001300
#03718:00000000000000000000000000000013
#03712:0014001400000000
#03717:0000003300000000000000330000000000000000000000000000000000000000
#04117:13130000
#04112:0000130000000013
#0411b:0000003300000000000000330000000000000000000000000000000000001300
#04118:00000000000000001300000000130000
#04115:00000000000000000013001300000000
#04116:0013001300000000
#04212:0000001300000013
#0421b:0000001300130000
#04216:00001414
#04318:1300000000000000230000000000000000000000000000230000000023000000
#0431b:0013002300000000
#04315:0023001300232300
#04312:23132300
#03216:1300000000000013
#03214:0013000000130000
#03217:0000001300000000
#03219:00000000000000000013000000000000
#03212:00000000130000130000000000000000
#03312:13001300000000000013001300000000
#03318:00130013000000000000130013000000
#03315:0000131300000000
#0331b:00000000001300130000000000000000
#04412:12
#04416:00000000000000120000000000000000
#0451c:12
#04518:00000000000000120000000000000000
#04612:00000000000000120000000000000000
#04616:12000012
#04618:00000000000000120000000000000000
#0481b:0000130000130013
#04817:13000013
#04816:0000130000130013
#04812:13000013
#0481f:11
#04919:00130000
#0491b:0000001300000000
#04912:0013
#04914:0000000000130000
#04916:00000013
#04917:0013000000000000
#05016:0000001300000000
#05017:0013000000000000
#05018:00001313
#0501b:0000000000130000
#05012:00002313
#05015:0000000000130000
#05116:0013000000000000
#05112:0000001300000013
#0511b:0013000000130000
#05119:00000013
#05117:0000000000000013
#05114:00000013
#05214:0000001300000000
#05216:00130000
#05217:0000000000130000
#05219:00000013
#0521b:0000000000000013
#05212:0013000000000000
#05316:00000000000000000000001800000000
#05315:00221322
#05312:00002200000013000000000000180000
#0531b:00130000
#05318:0013000000000000
#0531a:0000000000000014
#05319:0000002200220000
#0531c:0022
#05419:0000001300000000
#05417:00130000
#05416:0000000000130000
#05414:00000013
#05412:0000000000000013
#0541b:0013000000000000
#05517:0000001300000000
#05516:0013000000000000
#05515:00000013
#0551b:0023000000000013
#05512:0000000000230023
#05518:00000023
#05712:13000000130000001300000000130000
#05718:00001300000013000013001300001300
#05715:0000003300000000000000330000000000000000000013000000000000001300
#0571f:21
#0571b:0000000000000033000000000000003300000000000000000000000000000000
#05710:0041
#05915:0000130000130013
#05918:00000000001300000000001300000013
#05912:1400001400001300
#0591b:00000000000000000000000000130000
#0591a:0014000014000000
#0601b:00001300130000000013000000000000
#06012:1300001313002400
#06015:0000000000130000
#06018:00000000000000000000001300000000
#06016:0000003313000000000000000000000000000000000000000000000000000000
#06017:0000000000000000000000331300000000000000000000000000000000000000
#0601a:0000000000000024
#06115:13000000130000001313000000130000
#0611b:00000033000000330000000000001300
#06112:00330000003300000000000000000013
#06118:13001300000013000000001300000000
#05815:00001300000013000013001300001300
#0581b:13000000130000001300000000130000
#05818:0000003300000000000000330000000000000000000013000000000000001300
#05812:0000000000000033000000000000003300000000000000000000000000000000
#06212:00001300000013000000001300001300
#0621b:13000000130000001313000000000013
#06218:0000003300000000000000330000000000000000000000000000130000000000
#06215:0000000000000033000000000000003300000000000000000000000000000000
#06312:0000001300000013
#0631b:0000001300130000
#06316:00001414
#06315:00260000
#06418:1300000000000000230000000000000000000000320000323200000000000000
#0641b:0013002300000000
#06412:23132200
#06415:0023001300000000
#0641c:0022
#06416:0000000000000000000000000000000000000000320000323200000000000000
#06612:00000013000000001300130014000000
#06615:13
#06617:00000000000000000013000000000000
#0661b:2300001300000000
#06618:0013130000000000
#06912:1313
#06916:00130000
#06917:2323
#0691b:00230000
#00316:00000012
#0671a:00000014
#06716:00000000000000000013000000000000
#06718:13
#06715:0013130000000000
#0671b:00000013000000001300130000000000
#06712:1300001300000000
#07017:0012000000120000
#0001c:12
#0001a:0012
#00118:12
#00214:12
#00212:0012
#05617:1212000000000000
#05616:00000000000000120000000000001200
#05612:0000000000120000
#05618:00000000000000000000001200000000
#0561c:00000000000000002200000000000012
#05614:00000012
#0561a:00000000000000000000000000120000
#05613:00220000
#0561b:00220000
#06812:00000013000000001300130014000000
#06815:13
#06817:00000000000000000013000000000000
#0681b:1300001300000000
#06818:0013130000000000
#02312:14000013
#02316:00140000
#02318:00000000000013000013000000130013
#02315:00000000000000130000130000001300
#0231b:00000000000000000000001300000000
#0711c:0012000000000000
#0711a:00000000001200000000000000000000
#07118:0012
#0471a:14140000000000000000000024000000
#04716:00000014140000000014140000000000
#04712:00000000000014140000000024000000
#03512:00240000000000240000000026000000
#03514:0000240000240000
#03518:00000024000000000024000026000000
#0351a:2400002400000000
#00456:0000005300001300
#0045a:00000014
#00452:53000000000000000023000000000000
#00458:00000053000000000000000000000000
#00552:00000014
#0055b:63000000000000000023000000000000
#00557:0000006300001300
#00555:00000063000000000000000000000000
#00652:53000000000000000023000000000000
#00656:0000005300001300
#00658:00000063000000000000000000000000
#0065b:0000005300001300
#00657:00000000000000000023000000000000
#00752:5353
#00756:00530000
#00757:0053
#00858:0000000000130000
#00955:5353
#00952:00000000530000000000000000000013
#00957:00000000000000000000000000000013
#0095b:00000000000000000000000000530000
#0105b:00000000000000000053000000000000
#01156:00140000
#0115a:14
#01255:0000000000130000
#01358:6363
#0135b:00000000630000000000000000000013
#01352:00000000000000000000000000630000
#01356:00000000000000000000000000000013
#01457:00530000
#01456:0000001400006314
#01552:00000053
#0155b:0000000000000063
#01652:0023
#01655:53
#01956:6363
#01957:00530000
#0195b:1313
#01952:00130000
#02056:0000000000140000
#02158:00530000
#02152:5353
#02157:00000000000000000000000000630000
#0215b:00000000000000000000000000000013
#02156:00000000000000000000000000000013
#02252:00000000000000000063000000000000
#02456:0000000000140000
#02555:00630000
#0255b:6363
#02556:00000000000000000000000000530000
#02552:00000000000000000000000000000013
#02557:00000000000000000000000000000013
#02652:0000530000000014
#0265a:0000001400000000
#0265b:00000063
#0275a:00000054
#02952:00000000000000630000000000000000
#02955:00000013
#03056:00000000000000630000000000000000
#0315b:0000002300000000
#03152:0023000000230000
#03155:53135300
#03158:13531300
#03552:00000016
#03558:00000016
#03658:00000000000000000000006300000000
#03652:53530000
#03852:1400001400000000
#0385a:0014000014000000
#03952:53
#0395b:00530000
#04056:63630000
#04058:00000000000000000000005300000000
#03755:00000000000000000000005300000000
#0375b:63630000
#04157:53530000
#04155:00000000000000000000006300000000
#0335b:00000000000000530000000000000000
#03358:00000013
#04456:00000000000000620000000000000000
#04452:62
#0455c:52
#04558:00000000000000520000000000000000
#04652:00000000000000620000000000000000
#04656:62000062
#04658:00000000000000520000000000000000
#04857:53
#04852:53
#04856:0000230000000013
#0485b:0000230000000013
#0495b:00000013
#04956:00000013
#05058:00005353
#05052:00005353
#05055:0000000000530000
#0505b:0000000000530000
#05152:0000005300000000
#0515b:0053000000000000
#0525b:0000000000000013
#05356:00000000000000000000005800000000
#05359:0000000000220000
#0535a:0000000000000014
#05352:00000000000000000000000000680000
#05355:00000022
#05452:0000000000000013
#05557:0000005300000000
#0555b:0053000000000000
#05556:0053000000000000
#05758:00005300000053000000006300000000
#05752:53530000
#05952:1400001400000000
#0595a:0014000014000000
#06052:53
#0605b:00530000
#06056:0023000000000000
#06057:0000002300000000
#06155:63630000
#06158:00005300000053000000005300000000
#05855:00006300000063000000005300000000
#0585b:63630000
#06252:00005300000053000000006300000000
#0625b:63630000
#06355:00160000
#06652:00000053000000000000000014000000
#06655:53
#06657:00000000000000000023000000000000
#0665b:0000005300001300
#06952:5353
#06956:00530000
#06957:0053
#0675a:00000014
#06756:00000000000000000023000000000000
#06752:0000006300001300
#06758:63
#0675b:00000063000000000000000000000000
#06852:00000053000000000000000014000000
#06855:53
#06857:00000000000000000023000000000000
#0685b:0000005300001300
#02352:14
#02356:00140000
#04358:0000000000000013
#0645c:0052
#06452:0052
#04255:00160000
#0475a:00000014
#04752:00000014
#001360:00001222
#0033c0:12
#003380:00220000
#003361:00120000
#003321:0022
#0033c0:0012
#003380:00000022
#004320:13
#004350:00000023000000000000000000000000
#004381:00000013000000000000000000000000
#0043b1:0000002300000000
#004360:0000001300002300
#004320:00000000000000000053000000000000
#0053b0:13
#005380:00000023000000000000000000000000
#005351:00000013000000000000000000000000
#005321:0000002300000000
#005370:0000001300002300
#0053b0:00000000000000000053000000000000
#006320:13
#006350:00000023000000000000000000000000
#006381:00000013000000000000000000000000
#0063b1:0000005300002300
#006371:00000000000000000053000000000000
#006360:0000001300002300
#006320:00000000000000000053000000000000
#007320:1333
#007360:00330023
#007371:0013
#0073b1:00000023
#008321:0013
#008351:0000000000230000
#009351:13
#009321:00000023000000000000000000000000
#009321:00130000
#009351:00000000000000230000000000000000
#009351:0013
#009321:00000000000000000000002300000000
#0093b1:00000000000000000000000000130000
#009371:00000000000000000000000000000023
#0103b1:00000000000000000013000000000000
#010381:00000000000000000000002300000000
#011321:0014240000000000
#0123b1:0013
#012381:0000000000230000
#013381:13
#0133b1:00000023000000000000000000000000
#0133b1:00130000
#013381:00000000000000230000000000000000
#013381:0013
#0133b1:00000000000000000000002300000000
#013321:00000000000000000000000000130000
#013361:00000000000000000000000000000023
#014371:00130000
#0143b1:0000002300000000
#014361:00000013
#014321:0000000000000023
#015321:00000013
#015351:0000000000000023
#0153b0:0000000000000013
#016380:23
#016351:13
#016321:0053
#017351:23
#019361:13
#019321:00230000
#019370:00130000
#0193b0:0023
#019361:0013
#019321:00000023
#0203b1:0000001300000000
#020371:00000000000000332300000000000000
#020320:0000000013230000
#021320:13
#021350:00000023000000000000000000000000
#021380:00130000
#0213b0:00000000000000230000000000000000
#021320:0013
#021350:00000000000000000000002300000000
#021370:00000000000000000000000000130000
#0213b0:00000000000000000000000000000023
#022320:00000000000000000013000000000000
#022350:00000000000000000000002300000000
#0233a0:0014240000000000
#024320:0000001300000000
#024360:00000000000000332300000000000000
#0243b1:0000000013230000
#0253b1:13
#025381:00000023000000000000000000000000
#025351:00130000
#025321:00000000000000230000000000000000
#0253b1:0013
#025381:0000000000230000
#025361:00000000000000000000000000130000
#025321:00000000000000000000000000000023
#026321:00130000
#026361:0000002300000000
#0263b1:00000013
#026371:0000000000000023
#0273a1:00000014
#028361:24
#028320:13230000
#028320:0000000000001323
#029320:00000000000000130000000000000000
#029350:00000000000000000023000000000000
#030360:00000000000000130000000000000000
#030320:0000000000230000
#0303b0:0000000000001323
#031350:13230000
#031320:0053000000000000
#031381:00132300
#0313b1:0000005300000000
#031350:00001323
#031320:0000000000530000
#0323b0:13230000
#0323b0:0000000000001323
#0333b0:00000000000000130000000000000000
#033380:00000000000000000023000000000000
#034320:1323000000000000
#036320:13
#036360:0000003323000000000000000000000000000000000000000000000000000000
#036320:00130000
#036360:0000000000000000000000332300000000000000000000000000000000000000
#036380:00000000000000000000001300000000
#0363b0:00000000000000000000000000230000
#0373b0:13
#037370:0000003323000000000000000000000000000000000000000000000000000000
#0373b0:00130000
#037370:0000000000000000000000332300000000000000000000000000000000000000
#037350:00000000000000000000001300000000
#037320:00000000000000000000000000230000
#039320:13
#039360:0000003333000000230000000000000000000000000000000000000000000000
#0393b1:00130000
#039371:0000000000000000000000333300000023000000000000000000000000000000
#040361:13
#040321:0000003323000000000000000000000000000000000000000000000000000000
#040361:00130000
#040321:0000000000000000000000332300000000000000000000000000000000000000
#040381:00000000000000000000001300000000
#0403b1:00000000000000000000000000230000
#041371:13
#0413b1:0000003323000000000000000000000000000000000000000000000000000000
#041371:00130000
#0413b1:0000000000000000000000332300000000000000000000000000000000000000
#041351:00000000000000000000001300000000
#041321:00000000000000000000000000230000
#042351:16260000
#042321:0000000013230000
#0423b1:0000000000001323
#0433b1:0013
#043381:0000000000230000
#043351:0000000000001323
#044321:12
#044361:00000000000000320000000000000000
#045321:22
#0453c0:12
#045380:00000000000000320000000000000000
#0463c0:22
#046361:12000032
#046321:00000000000000320000000000000000
#047321:22
#046380:00000000000000120000000000000000
#0463c0:00000022
#048371:1323
#0483b1:00530000
#048320:1323
#048360:00530000
#049320:0013000000000000
#049360:0000002300000000
#049370:0013
#0493b0:00000023
#050320:1323000000000000
#0503b0:0000132300000000
#050380:00001333
#0503b0:0000000000330023
#050321:00001333
#050351:0000000000330023
#0513b1:0013000000000000
#051371:0000002300000000
#051320:0000001300000000
#051360:0000000000230000
#0523b0:0013000023000000
#052321:0000000013000023
#053391:0000000000122200
#053361:00000000000000000000005800000000
#053350:0000000000001222
#053320:00000000000000000000000000580000
#054320:0013000023000000
#0543b1:0000000013000023
#0553b1:0013000000230000
#055371:0000003300000000
#055360:0013000000000000
#055320:0000002300000000
#057321:13
#057351:0000003323000000000000000000000000000000000000000000000000000000
#057380:0013000000000000
#0573b0:0000000000000033230000000000000000000000000000000000000000000000
#057321:00130000
#057351:0000000000000000000000332300000000000000000000000000000000000000
#057380:0000001300000000
#0573b0:0000000000000000000000000000003323000000000000000000000000000000
#057380:00000000000000000000001300000000
#0573b0:00000000000000000000000000230000
#0583b0:13
#058380:0000003323000000000000000000000000000000000000000000000000000000
#058351:0013000000000000
#058321:0000000000000033230000000000000000000000000000000000000000000000
#0583b0:00130000
#058380:0000000000000000000000332300000000000000000000000000000000000000
#058351:0000001300000000
#058321:0000000000000000000000000000003323000000000000000000000000000000
#058351:00000000000000000000001300000000
#058321:00000000000000000000000000230000
#060321:13230000
#060361:0000003333000000000000000000000000000000000000000000000000000000
#0603b0:00132300
#060370:0000000000000000000000333300000000000000000000000000000000000000
#061350:13
#061320:00332300000000000000000000000000
#061381:0013000000000000
#0613b1:00000033230000000000000000000000
#061350:00130000
#061320:00000000003323000000000000000000
#061381:0000001300000000
#0613b1:00000000000000332300000000000000
#061381:00000000000000000000001300000000
#0613b1:00000000000000000000000000230000
#0623b1:13
#062381:0000003323000000000000000000000000000000000000000000000000000000
#062320:0013000000000000
#062350:0000000000000033230000000000000000000000000000000000000000000000
#0623b1:00130000
#062381:0000000000000000000000332300000000000000000000000000000000000000
#062320:0000001300000000
#062350:0000000000000000000000000000003323000000000000000000000000000000
#062320:00000000000000000000001300000000
#062350:00000000000000000000000000230000
#063350:16260000
#063320:0000000013230000
#0633b0:0000000000001323
#0643c0:0012
#064380:0000000000000000000000000000000000000000320000323200000022000000
#064321:0012
#064361:0000000000000000000000000000000000000000320000323200000022000000
#066351:1300002300000000
#066321:00000033000000000000000000000000
#0663b0:0000001300002300
#066370:00000000000000000053000000000000
#067380:1300002300000000
#0673b0:00000033000000000000000000000000
#067321:0000001300002300
#067361:00000000000000000053000000000000
#068351:1300002300000000
#068321:00000033000000000000000000000000
#0683b0:0000001300002300
#068370:00000000000000000053000000000000
#069320:1333
#069360:00330023
#069371:0013
#0693b1:00000023
#070321:1222000000000000
#0703c1:0000000012220000
#071321:0012000000000000
#071341:00000000003200000000000000000000
#071361:0022
