This file was generated by Ched 2.7.0.0.
#TITLE ""
#ARTIST ""
#DESIGNER ""
#DIFFICULTY 0
#PLAYLEVEL
#SONGID ""
#WAVE ""
#WAVEOFFSET 0
#JACKET ""
#REQUEST "ticks_per_beat 480"
#00002: 4
#BPM01: 118
#00008: 01
#TIL00: ""
#HISPEED 00
#MEASUREHS 00
#00818:0013001300000013
#00815:00130000
#00812:2313
#00810:41
#0101b:00001300000000000013000000000000
#01018:0000001300000000
#01015:00000000130000130000000000000000
#01017:00000000000000000000003333333333
#01415:00001300130000000000001300000000
#01418:00000013000000000000130013000000
#0141a:0000001400000000
#01412:0000000000000014
#01514:001400000000001400000000
#0151a:241400241400
#01512:000000240014000000000000
#01518:000000000000000014000000000000000000000000130000
#01515:00000013
#01612:0013
#01615:23
#02018:0013001300000000
#02015:0000130000000013
#0201b:2300000000130000
#02012:2313
#02212:00001300000000000013000000000000
#02218:00000000130000130000000000000000
#02215:0000001300000000
#02216:00000000000000000000003333333333
#0281b:0000001300000000
#02818:0013000000000013
#02812:13000000000000000033330000000000
#02815:00000000130000130000000000000000
#02912:13000000000000130000000000000000
#02915:00001300000000000033333300000000
#02918:00130000
#0291b:0000001300000000
#0301b:13000000000000000000333300000000
#03015:0013000000000000
#03018:00000000130000130000000000000000
#03012:0000001300000013
#03010:41
#03612:00000000000000000000001300000000
#03618:0000003300000000000000330000000000000000000000000000000000000000
#0361b:0000000000000033000000000000000000000000000000000000000000000000
#03615:00000000000000000000000000330000
#03610:41
#0381b:00130013
#03812:0000000000130000
#03815:0000000000000013
#03818:1414
#03814:0014001400000000
#0421b:0000001300000013
#04218:0000000000130000
#04215:0013
#04212:00000013
#04818:00130013
#0481b:13
#04815:0000000000130000
#04812:0000000000000013
#0481f:11
#04915:00130000
#0491b:0013001300000000
#04912:00001313
#04918:0000000000130000
#0511b:0013000000000000
#05118:0000001300000013
#05115:00000013
#05214:0000001300000000
#05217:00130000
#05216:0000000000130000
#0521b:00000013
#05212:0013000000000013
#05219:0013
#00016:12
#0001b:0012
#00115:12
#0011a:0012
#00114:00000012
#00219:12
#00213:0012
#01115:00000000000013000000000000130000
#01112:00001300000000000000130000000013
#0111b:00130013
#01118:0000000013000013
#02318:00000000000013000000000000130013
#02315:0000000013000013
#0231b:0013000000130000
#02312:00130013
#04718:00140000000000140000000000000000
#04714:00000014000000000014000000000000
#0471a:0000140000140000
#04712:0000001400002400
#0031b:13
#00318:00130000
#00315:0013
#00312:00000013
#00415:00000013000000000000000000000000
#00418:0000001300000000
#0041b:23
#00518:00000013000000000000000000000000
#00515:0000001300000000
#00512:13
#00618:13
#00612:00000013000000000000000000000000
#0061b:0000001300000000
#00915:1313
#00912:00130000
#01215:0013001300000013
#01218:00130000
#0121b:2313
#01318:1313
#0131b:00130000
#01818:13
#0181b:0013
#01916:00130000
#0191b:00130000
#01914:0013
#01919:0013
#01917:00000013
#01912:00000013
#0211b:1313
#02118:00130000
#02415:0013001300000000
#02418:0000130000000013
#02412:2300000000130000
#0241b:0013
#02410:41
#02512:1313
#02515:00130000
#02618:00001300130000000000001300000000
#02615:00000013000000000000130013000000
#02612:0000001400000000
#0261a:0000000000000014
#02718:001400000000001400000000
#02712:241400241400
#0271a:000000240014000000240000
#02714:001400
#03115:0013000000130000
#03112:0000001300000000
#03119:00000024
#03113:0000000000000024
#03118:2323
#0311b:00230000
#03212:0000001300000000
#03215:0013000000000013
#0321b:13000000000000000033330000000000
#03218:00000000130000130000000000000000
#0331b:13000000000000130000000000000000
#03318:00001300000000000033333300000000
#03315:00130000
#03312:0000001300000000
#03412:1313
#03418:0013000000130000
#03415:00130013
#0341b:0000001300000013
#03715:00000000000000000000001300000000
#0371b:0000003300000000000000330000000000000000000000000000000000000000
#03718:0000000000000033000000000000000000000000000000000000000000000000
#03712:00000000000000000000000000330000
#03918:1300003333000000000000333300000000000000000000002400000024000000
#0391b:0000000000000033130000000000000000000000000000000000000000000000
#03915:0000000000130000
#03914:00000000000000000000000000140000
#0401b:00000000000000000000001300000000
#04015:0000003300000000000000330000000000000000000000000000000000000000
#04012:0000000000000033000000000000000000000000000000000000000000000000
#04018:00000000000000000000000000330000
#04118:00000000000000000000001300000000
#04112:0000003300000000000000330000000000000000000000000000000000000000
#04115:0000000000000033000000000000000000000000000000000000000000000000
#0411b:00000000000000000000000000330000
#04412:13
#04415:0013
#0451b:13
#04518:0013
#04612:13
#04615:0013
#05419:0000001300000000
#05416:00130000
#05417:0000000000130000
#05412:00000013
#0541b:0013000000000013
#05414:0013
#05518:0013000000000000
#05517:0000000000130000
#05519:00000013
#0551b:0000000000000013
#05516:0000000000000023
#05512:0023000000230000
#05514:00000023
#05615:13000000000000130000000000000000
#05618:0013000023000000
#05612:0000230000130000
#05617:00000000000000000000001300000000
#05614:00000013
#05619:00000000000000000000000000130000
#05616:0000000000000013
#0561b:00000000230000000000000000000013
#0571b:00000000000000000000001300000000
#0571f:21
#05715:0000003300000000000000330000000000000000000000000000000000000000
#05712:0000000000000033000000000000000000000000000000000000000000000000
#05718:00000000000000000000000000330000
#05710:0041
#05912:00130013
#0591b:0000000000130000
#05918:0014001400000013
#05914:1414
#06312:0000001300000013
#06315:0000000000130000
#06318:00261300
#0631b:00000013
#05818:00000000000000000000001300000000
#05812:0000003300000000000000330000000000000000000000000000000000000000
#05815:0000000000000033000000000000000000000000000000000000000000000000
#0581b:00000000000000000000000000330000
#06015:1300003333000000000000333300000000000000000000000000000000000000
#06012:0000000000000033130000000000000000000000000000000000000000000000
#06018:00000000000000000000130000140000
#06014:0000000000002424
#06112:00000000000000000000001300000000
#06115:00000000000000000000000000330000
#0611b:00000033000000330000000000000000
#06118:00330000003300000000000000000000
#06215:00000000000000000000001300000000
#0621b:0000003300000000000000330000000000000000000000000000000000000000
#06218:0000000000000033000000000000000000000000000000000000000000000000
#06212:00000000000000000000000000330000
#06615:00000013000000000000000000000000
#06618:0000001300000000
#0661b:23
#06718:00000013000000000000000000000000
#06715:0000001300000000
#06712:13
#06818:13
#06812:00000013000000000000000000000000
#0681b:0000001300000000
#00715:2323
#00718:00230000
#0071b:0023
#03518:00240000000000240000000000000000
#0351a:0000240000240000
#03512:2400002400002600
#03514:00000024000000000024000000000000
#04312:2323
#04315:0000000023000000000000000000000000000000000000230000000000000000
#04318:0000230000232300
#0431b:0000002300000000
#0531b:0023000000000000
#05315:00230023
#05312:0023
#05318:0000002300230023
#05012:0023
#01718:0000000000230000
#01710:41
#0641b:23
#06418:0000000023000000000000000000000022000000000000220000000000000000
#06415:00230000
#06412:0000002300000000
#06416:0000000000222200
#06915:2323
#06918:00230000
#0691b:0023
#07118:00000000003200000000000000000000
#07116:00000000003200000000000000000000
#00755:0063
#0075b:0063
#0105b:00000000000000000053000000000000
#0145a:0000001400000000
#01452:0000000000000014
#01652:0023
#01655:53
#0205b:0000000000130000
#02252:00000000000000000063000000000000
#02952:00000000000000630000000000000000
#02955:00000013
#03058:00000000000000530000000000000000
#03552:00000016
#03652:00000000000000000000006300000000
#03858:1414
#03854:0014001400000000
#0485b:63
#04858:00230000
#04852:0000000000000013
#04952:00000013
#0515b:0053000000000000
#05158:0000005300000000
#05252:0000000000000013
#05552:0053000000000000
#05558:0053000000000000
#00458:0000005300000000
#0045b:00000013
#00555:0000006300000000
#00552:00000013
#0065b:0000005300000000
#00658:00000013
#00855:0000000000130000
#00852:0053
#00952:00000000530000000000000000000013
#00955:5353
#0125b:0063
#01258:0000000000130000
#01358:6363
#0135b:00000000630000000000000000000013
#01858:53
#0185b:0023
#0215b:5353
#02158:00000000530000000000000000000013
#02452:0000000000130000
#02552:6363
#02555:00000000630000000000000000000013
#02652:0000001400000000
#0265a:0000000000000014
#02855:00000000000000530000000000000000
#0335b:00000000000000530000000000000000
#03358:00000013
#03258:00000000000000630000000000000000
#03755:00000000000000000000005300000000
#03958:53
#0395b:00530000
#0405b:00000000000000000000005300000000
#04158:00000000000000000000006300000000
#04358:0000000000000013
#04452:53
#04455:0023
#0455b:53
#04558:0023
#04652:53
#04655:0023
#0545b:0000000000000013
#0575b:00000000000000000000005300000000
#05954:1414
#05958:0014001400000000
#05858:00000000000000000000006300000000
#06055:63
#06052:00630000
#06152:00000000000000000000006300000000
#06255:00000000000000000000005300000000
#06358:00160000
#06658:0000005300000000
#0665b:00000013
#06755:0000006300000000
#06752:00000013
#0685b:0000005300000000
#06858:00000013
#06955:0063
#0695b:0063
#03158:1313
#0315b:00130000
#04252:00160000
#04752:00000014
#004380:0000001300000000
#0043b0:00000023
#005350:0000001300000000
#005320:00000023
#0063b0:0000001300000000
#006380:00000023
#007350:0013
#007320:00000023
#0073b1:0013
#007381:00000023
#008321:0013
#008351:0000000000230000
#009351:1333
#009321:00000000330000000000000033330023
#0103b1:00000000000000000013000000000000
#010371:00000000000000000000003333333333
#011371:23
#0123b1:0013
#012381:0000000000230000
#013381:1333
#0133b1:00000000330000000000000033330023
#016351:13
#016321:0053
#017351:23
#017381:0000000000130000
#018381:33
#0183b1:0053
#019381:23
#0213b1:1333
#021381:00000000330000000000000033330023
#022321:00000000000000000013000000000000
#022361:00000000000000000000003333333333
#023361:23
#025321:1333
#025351:00000000330000000000000033330023
#028351:00000000000000130000000000000000
#028321:00000000000000000033330023000000
#029321:00000000000000130000000000000000
#029351:00000000000000000033333323000000
#030381:00000000000000130000000000000000
#0303b1:00000000000000000000333323000000
#032381:00000000000000130000000000000000
#0323b1:00000000000000000033330023000000
#0333b1:00000000000000130000000000000000
#033381:00000000000000000033333323000000
#0363b1:1300000000000033330000000000000033002300000000000000000000000000
#036381:0000003333000000000000333300000000000000000000000000000000000000
#036321:00000000000000000000001300000000
#036351:00000000000000000000000000332300
#037381:1300000000000033330000000000000033002300000000000000000000000000
#0373b1:0000003333000000000000333300000000000000000000000000000000000000
#037351:00000000000000000000001300000000
#037321:00000000000000000000000000332300
#039381:1300003333000000000000333300000023000000000000000000000000000000
#0393b1:0000000000000033330000000000000000000000000000000000000000000000
#040321:1300000000000033330000000000000033002300000000000000000000000000
#040351:0000003333000000000000333300000000000000000000000000000000000000
#0403b1:00000000000000000000001300000000
#040381:00000000000000000000000000332300
#041351:1300000000000033330000000000000033002300000000000000000000000000
#041321:0000003333000000000000333300000000000000000000000000000000000000
#041381:00000000000000000000001300000000
#0413b1:00000000000000000000000000332300
#042321:16260000
#043381:0000000000001323
#044321:13
#044351:0053
#045321:23
#0453b0:13
#045380:0053
#0463b0:23
#046321:13
#046351:0053
#047321:23
#0483b1:1323
#048381:00530000
#0503b1:1323000000000000
#050351:0000132300000000
#050381:0000000013000023
#0503b1:0000000000333300
#050320:0000000013000023
#050350:0000000000333300
#0513b0:0013000000230000
#051380:0000003300000000
#055320:0013000000000000
#055350:0000002300000000
#055381:0013000000000000
#0553b1:0000002300000000
#057321:1300000000000033330000000000000033002300000000000000000000000000
#057351:0000003333000000000000333300000000000000000000000000000000000000
#0573b1:00000000000000000000001300000000
#057381:00000000000000000000000000332300
#058351:1300000000000033330000000000000033002300000000000000000000000000
#058321:0000003333000000000000333300000000000000000000000000000000000000
#058381:00000000000000000000001300000000
#0583b1:00000000000000000000000000332300
#060351:1300003333000000000000333300000023000000000000000000000000000000
#060321:0000000000000033330000000000000000000000000000000000000000000000
#0613b1:13000033330000333323000000000000
#061381:00333300003333000000000000000000
#061321:00000000000000000000001300000000
#061351:00000000000000000000000000332300
#062381:1300000000000033330000000000000033002300000000000000000000000000
#0623b1:0000003333000000000000333300000000000000000000000000000000000000
#062351:00000000000000000000001300000000
#062321:00000000000000000000000000332300
#063381:16260000
#064361:0000000000001222
#066381:0000001300000000
#0663b1:00000023
#067351:0000001300000000
#067321:00000023
#0683b1:0000001300000000
#068381:00000023
#069351:0013
#069321:00000023
#0693b0:0013
#069380:00000023
#070340:1222000000000000
#0703a0:0000000012220000
#071330:0012000000000000
#071360:00000000003200002200000000000000
#0713b1:0012000000000000
#071381:00000000003200002200000000000000
