This file was generated by Ched 2.7.0.0.
#TITLE ""
#ARTIST ""
#DESIGNER ""
#DIFFICULTY 0
#PLAYLEVEL
#SONGID ""
#WAVE ""
#WAVEOFFSET 0
#JACKET ""
#REQUEST "ticks_per_beat 480"
#00002: 4
#BPM01: 118
#00008: 01
#TIL00: ""
#HISPEED 00
#MEASUREHS 00
#0041b:00001300130000000013000000000000
#00416:00001300000000141400130000000000
#00415:0000000000000013
#00412:1300001300000000
#00418:00000000000000000000000000000013
#0041a:24000014
#00616:00001300000000141400130000001200
#00618:00000000000000000000000000000012
#0061b:00001300130000000013000000000000
#0061a:14000014
#00612:1300001300000000
#00712:12000012
#00713:00120000
#00714:0012
#00718:00001212000000000000000000000000
#00719:00000000000012120000000000120000
#0071a:24000000000000000000121200000000
#00715:0000000000000012
#0071c:00000000000000000000000000000012
#00815:00001300000000000000130000000013
#00812:2400000000000000130000000000001600000000000000001300000000000000
#00817:13
#00816:0000001400000000
#0081b:00001313
#00818:0000000000000013
#00810:41
#01018:00000013
#0101b:00000000130000000013000000001300
#01015:00000000000000000000000000130000
#01012:00001300000000000013000000000013
#01017:0013000000000000
#01016:00130000
#0101a:00000000000000140000000000000000
#01118:13130013
#01112:00001300000013000000130000000013
#01115:13000000000000001300000000130000
#0111b:0013001300130013
#01412:001713001c000000
#01416:00000013130000000000000000000000
#01417:00000000000000000000171313000000
#0141b:00000013
#01517:001400000000000000000000
#01513:000014290000000000000000
#01518:000000001400000000260000
#01514:000000000014290000000000
#01519:000000000000001400000000
#01515:000014
#01512:29
#00912:0013000000130000
#0091b:13000013000000001300001300000000
#00916:00000000130000130000000013000000
#00917:00000000000013000000000000130000
#02018:0000000012000000000000000000001600000000130000000000000000001300
#0201b:00130013
#02016:1300001400000000
#02012:00001313
#02015:0000000000000013
#0201a:24
#02215:00000013
#02212:00000000130000140013000000001300
#02218:00000000000000000000000000130000
#0221b:00001300000000000013000000000013
#02216:0013000000000000
#02217:00130000
#02315:13130013
#0231b:00001300000013000000130000000013
#02318:13000000000000001300000000130000
#02312:0013001300130013
#0241b:0013001313001300
#02417:23130000
#02412:1300000000000000000000000000001900000000000000001300000000000000
#02418:00000000000000000000000000000013
#02415:0000000000130013
#02416:0013000000000000
#02410:41
#02514:0013001300130000
#0251b:13000000130000001300000000130000
#02512:13000013000000130000001300130000
#02617:00001717130000000000000000000000
#0261b:00130000
#02612:00000000000000001c00171713000000
#02616:00000013
#02715:291400000000000000000000
#02719:001400000000
#02714:000000291400000000000000
#02718:000000000014000000260000
#02713:000000000000291400000000
#02717:000014
#02712:00000026
#0211b:0013000000130000
#02112:13000013000000001300001300000000
#02117:00000000130000130000000013000000
#02116:00000000000013000000000000130000
#02912:13000000000000130000000016000000
#02915:00130000130013000013001300000000
#02918:00001300001300000000130016000000
#0291b:00000013000000130000000000000000
#02916:0000000000000014
#02815:00000000000000130000000000001300
#02818:00000000000000000000000013000013
#0281b:00001300000013000000130000130000
#02812:13000000000000000013000000000000
#02816:0013000000000000
#02817:13
#03117:0013000000130000
#03116:0000001300000000
#03112:2300001323000000
#0311b:2313230000132300
#03118:0000000000000013
#03115:0000000000000023
#0331b:13000000000000130000000000000000
#03318:00130000130013000013001316000000
#03315:00001300001300000000130000000000
#03312:00000013000000130000000016000000
#03316:0000000000000014
#03218:00000000000000130000000000001300
#03215:00000000000000000000000013000013
#03212:00001300000013000000130000130000
#0321b:13000000000000000013000000000000
#03217:0013000000000000
#03216:13
#03415:19001600001600131600001600001300
#03412:13000013000000000013000000000013
#03418:00000000130000000000130000130000
#0341b:0000001300001300
#03515:00160000160000160000160000000000
#03518:2600002600002600
#03512:00000026230000000026230026000000
#0351b:00230000000000230000000000000000
#0301b:13000000000013000013000000000000
#03018:0000000000130000
#03015:00001900000000160000001300001600
#03012:19190013
#03010:41
#03616:00001400140014000013000000000000
#0361b:0000001300000000000000130000000000000000000000000000000000000000
#03612:1500000000000013000000000000130000000000000013000000000013000000
#03619:15
#03617:00000000000000000000001300000000
#03610:41
#0171a:1412001214000000
#01712:1300000000150000
#01717:00000000130000000000001200000000
#01715:0000000000000013
#01718:0000000000000013
#0171c:00220000
#01719:00000025
#01710:41
#01819:0000000000150000
#01817:00000000000000000000001200000000
#0181b:13
#01816:00130000
#01818:0000000000000013
#01815:0000000000000013
#01812:14221425
#01814:0012001200000000
#0191c:1200001212001200
#01912:16001200120000001600120000000012
#01918:00160000
#01915:00000000000000000000000000120000
#01919:0000000000000012
#03716:00001400140014000000001300000000
#03712:1500001300000000000000130000000000000000000000000000000000000000
#0371b:0000000000000013000000000000130000000000000013000000000013000000
#03719:15
#03717:00000000000000000013000000000000
#03818:00130000130000001300000000000000
#03815:13001600001316001300000000000000
#0381b:00000000000000130000130000001300
#03812:00000013000000000000000013000000
#03816:00000000000000000000001400140014
#04016:0000001300000000000000130000000000000000000000000000000000001300
#0401a:1414001400000000
#04012:14000000140000000000001700000000
#04017:0000000000000013000000000000130000000000000000000000000000000000
#0401b:0000000000000000000000000000000000000013000013000000000013000000
#04015:0000000000190000
#04117:0000001300000000000000130000000000000000000017000000000000001300
#04112:14001400000014000013001300001300
#0411a:14140000
#04116:0000000000000013000000000000000000000000000000000000000000000000
#04212:14001613
#0421a:14
#04218:00000000000000130000000016000013
#04215:00000000000000000000001300001300
#0421b:0013
#0431b:13232323
#04315:00130013000000000000230000002300
#04312:2300000000000000130000002600000023000000000000290000000000000000
#04318:00002600001300130000000000000000
#04817:13131300
#0481b:0013131300000000
#04816:0000000000131314
#04812:13
#0481f:11
#05017:0013000000130000
#0501b:1313130000131300
#05016:0000001300000000
#05012:1300001313000000
#05312:00000017000000000000000000000000
#05317:00000000001700000000000000000000
#05313:00000000000000170000210000000000
#05315:0021000000000000
#0531c:0000000000210000
#0531a:00210000
#05316:0000002100000000
#05412:0015000000150015
#05419:0000001500000015
#05417:0015120012151200
#05414:0000001500000000
#05517:12000027
#05519:0013000000000000
#0551b:00131300
#05512:000013001300002c
#05514:0000000000230000
#05518:0000002300000000
#05516:0023000000000000
#0561c:1212000000000000
#05618:00000000120000122600120000120012
#05616:00000000000012000000001200001200
#05612:0000000000000000260000000000001400000000000000001400000000000000
#0561a:00000014
#05918:13000000001300001300000000000000
#05912:00000000000000130000130000001300
#0591b:00000013000000000000000013000000
#05916:00000000000000000000001400140014
#05915:00131600130016001300000000000000
#06117:00130000001300000013000000000000
#06112:241800181c000000
#06116:00000000180000000000001300000000
#0611b:00000013000000130000000000000000
#06115:0000000000000013
#06118:00000000000000000000000000130013
#0611a:24
#06012:0000001400000014000000000000000014000000000000002400000000000000
#0601a:00141424
#06016:00000000001300130000000000000000
#06019:0000001300000000
#06017:00000000000000000013001300000000
#06014:0000000000130000
#0631a:14
#06312:14261316
#06315:00000000000000130000000000000013
#06318:00000000260000001600001300001300
#0631b:00000013
#06412:1326230022000000
#06418:00130013000026000000220022000000
#0641b:23130000
#06415:00000000001300130000000000000000
#0641c:0022
#06416:0000000000000000000000000000000000000000000000220000000022000000
#05818:0016001600000016
#05815:0000001300000000160000130000000019000000000000000000000000000000
#05812:1400000000000013000000000000130000001300000000000000130016000000
#0581b:00000000000000000000001300000000
#0581a:14
#05718:0000001300000000000000130000000000000000000000000000000016000000
#05712:24001600000016001900001300001600
#0571b:0000000000000013000000000000130000001300000000000000130000000000
#05715:00160000
#0571a:24
#0571f:21
#05710:0041
#0391a:0000001400000014000000000000000014000000000000002400000000000000
#03912:00141424
#03917:00000000001300130000000000000000
#03914:0000001300000000
#03916:00000000000000000013001300000000
#03919:0000000000130000
#06216:0000001318000000000000131800000000001300000000000000000000000000
#06212:240000000000001318000000000000131c000000000000000000000000000000
#06218:0000000000000013
#06215:00000000000000000000000000130013
#06217:00000000000000000000001300000000
#0621a:24
#06617:13001200000000120000000000000000
#06612:24000000000000000013130014000000
#0661b:0013001313000000
#06616:0000000000000013
#06615:0000000000140000
#06619:00000000000000000000000000000012
#06717:00001300000000120000140000001300
#0671b:13000000000000000013130000000000
#06712:0013001313000000
#06716:13
#06715:00000000000000000000000000000012
#0671a:00000014
#06816:00001300000000000000000000000012
#06818:0000000000000012
#06812:13000000000000000013130014000000
#0681b:0013001313000000
#06817:13000000000000120000000000000000
#06815:0000000000140000
#0691c:12000012
#0691b:00120000
#0691a:0012
#06916:00001212000000000000000000000000
#06915:00000000000012120000000000120000
#06914:00000000000000000000121200000000
#06919:0000000000000012
#06912:24000000000000000000000000000012
#0701c:1212000000000000
#07012:0000000012120000
#07118:0012000012000000
#0711c:00000000001200000000000000000000
#00512:14001300130000000013000014000000
#00516:00000000000000141400000000000000
#0051b:1300001300000000
#00517:0013000000130000
#00518:0000000000000013
#00515:00000000000000000000000000000013
#06517:00000000000000000000000000000012
#0651a:00000000000000000000001200120000
#06512:00000018
#00119:00000012
#00116:0012
#00118:12
#00215:0012
#00217:12
#00017:0012
#00019:12
#00316:00000000120000000012000012001200
#00318:00000000000000001200120000120012
#0031c:12
#04419:0000000000000012
#04412:000000003232000000120000000000000000000000000000
#04415:0000000000000012
#0441c:000000003232000000000000000000000000000000000000
#04516:00000000000000120000000000000000
#04512:000000000000000000000000000000000000000000000000000000000000000000000012000000000000000000000000
#0451c:00000000000000120000000000000000
#04518:000000000000000000000000000000000000000000000000000000000000000000000012000000000000000000000000
#04616:001200000000000000000000
#04612:000000000000000000000000000000000000000000000000000000000000000000001200000000000000000000120000000000000000000000000000000000000000000000000000000000000000000000000000000000000000000000000000
#0461c:001200000000000000000000
#04618:000000000000000000000000000000000000000000000000000000000000000000001200000000000000000000120000000000000000000000000000000000000000000000000000000000000000000000000000000000000000000000000000
#04716:28000014000000142800001400000000
#0471a:0000001400000000000000000000000000000014000000000000000000000000
#04712:0000000000000000280000140000000000000000000000002c00000000000000
#01618:2612151214000000
#01613:00150000
#01614:0014
#01616:0012001200000000
#01612:16
#0131b:13000013000000130000001300130000
#01319:0013001300130000
#01312:13000000130000001300000000130000
#0121b:13000013
#01212:0013001313001300
#01217:0013000000000000
#01218:0000000000130013
#01215:0000000000000000000000000000001900000000000000000000000000001300
#01216:23130000
#0491b:1313001300130000
#04918:00130000
#04917:0013
#04916:00000014
#0511b:13000000000000000000000000000013
#05118:0000000000000013
#05115:00000000000000000000000000130000
#05112:00131313
#05116:0013001300130000
#05212:16
#05218:0000000000000012
#05216:00000012
#05214:0000000000120000
#0521a:0014000000000000
#00456:0023000000530000
#00452:63
#0045b:00530000
#0045a:14000014
#00752:62
#00753:00620000
#00754:0062
#00857:53
#00855:0000000000130000
#0085b:0053
#00852:14
#01155:53135300
#01152:0023000000230000
#0115b:0000002300000000
#01158:13631300
#0105b:00000000530000000053000000000000
#01056:00530000
#01052:00000000000000000053000000000000
#0105a:00000000000000140000000000000000
#01456:0000531300000000
#0145a:0000001300000000
#01452:00530000
#0145b:00000063
#01457:0000000000006313
#01453:0000000000000013
#0095b:63000000000000006300000000000013
#00956:00630063
#00957:00000000000000000000000000630000
#00952:00000000000000000000000000000013
#02056:63
#02058:0000000000130000
#02052:0063
#0205a:14
#0235b:0023000000230000
#02358:63136300
#02352:0000002300000000
#02355:13531300
#02252:00000000630000140063000000000000
#02257:00630000
#0225b:00000000000000000063000000000000
#02452:53
#02456:0023000000000000
#0245b:0053
#02458:0000000000130000
#02455:0000000000130000
#0255b:63000000630000006300000000630000
#02552:00000000000000000000000000630000
#02555:00000000000000000000000000000013
#02558:00000000000000000000000000000013
#0265b:00630000
#02657:0000631300000000
#02652:00000053
#02656:0000000000005313
#02653:0000001300000000
#0265a:0000000000000013
#02152:53000000000000005300000000000013
#02157:00530053
#02156:00000000000000000000000000530000
#0215b:00000000000000000000000000000013
#02758:00000016
#02752:00000016
#02852:00000000000000000053000000000000
#0285b:0023005300000000
#02857:53
#0295b:00000000000000530000000000000000
#02958:00000016
#02952:00000016
#03157:0023000000230000
#03152:53335333
#03156:0000002300000000
#0315b:43634300
#03352:00000000000000630000000016000000
#03358:00000016
#0325b:00000000000000000063000000000000
#03252:0023006300000000
#03256:63
#03555:00160000160000160000160000000000
#03552:00000016
#03558:00000016
#03455:59
#03055:00005900000000560000000000000000
#03052:69690000
#01757:00530000
#01752:23
#0185b:23
#01856:00630000
#0195c:6262
#01952:36523600
#01958:00460000
#03855:1363
#03858:00130000
#04252:54160000
#04258:00160000
#0425a:64
#04358:0000000000000013
#0435b:00005353
#04355:0000000000000013
#03652:00000000000000000000005300001300
#03657:00000000000000000000005300000000
#0365b:0000000000000013
#04856:0000000000000014
#04852:53
#04857:00230000
#05057:0023000000230000
#0505b:00630053
#05056:0000002300000013
#05052:5353
#05355:0021000000000000
#05352:00000067000000000000000000000000
#05357:00000000005700000000000000000000
#0535a:00210000
#05353:00000000000000670000000000000000
#05356:0000002100000000
#05452:0055000000550015
#05459:0000006500000015
#0555b:0023
#05552:000023000000003c
#05554:0000000000330000
#05557:00000047
#05556:0053000000000000
#05558:0000005300000000
#05958:1353
#05955:00130000
#0635a:64
#06352:54160000
#06358:00160000
#06054:0000000000000014
#06058:0000000000000014
#0605a:00000054
#06052:00000054
#05852:00000000000000000053000000001600
#0585b:00000000000000000000005300000000
#05858:0000000000000016
#05758:0000000000000016
#05752:00000000000000000000006300001600
#0575b:00000000000000000063000000000000
#03958:0000000000000014
#03954:0000000000000014
#0395a:00000054
#03952:00000054
#06157:00000000000000000063000000000000
#06156:00000000000000000000006300000000
#06256:00000000000000000053000000000000
#06257:00000000000000000000005300000000
#06657:63
#0665b:0023000000000000
#06655:0000000000640000
#06652:14000014
#0665a:00000014
#06756:63
#06752:0023000000001400
#06757:0000000000540000
#0675a:00000014
#06857:63
#0685b:0023000000000000
#06855:0000000000640000
#06852:00000014
#0685a:00000014
#0695c:52
#0695b:00520000
#0695a:0052
#00557:0023000000630000
#0055b:53
#00552:00630014
#00656:0023000000530000
#00652:63
#0065b:00530000
#0065a:00000014
#00255:0052
#00257:52
#00156:0052
#00158:52
#00057:0052
#00059:52
#00356:00520000
#0035c:52
#04556:00000000000000620000000000000000
#04552:000000000000000000000000000000000000000000000000000000000000000000000062000000000000000000000000
#0455c:00000000000000620000000000000000
#04558:000000000000000000000000000000000000000000000000000000000000000000000062000000000000000000000000
#04656:005200000000000000000000
#04652:0000000000000000000000000000005200000000000000000000000000000000
#0465c:005200000000000000000000
#04658:0000000000000000000000000000005200000000000000000000000000000000
#04752:0000001c
#0375b:00000000000000000000006300001300
#03756:00000000000000000000006300000000
#03752:0000000000000013
#0405b:00000000000000000000006300000000
#04052:00000000000000000000006700000000
#04152:00000000000000000000005300000000
#04157:00000000000000000000005700000000
#01658:5622552254000000
#01653:00650000
#01654:0064
#01656:0022002200000000
#01652:56
#01255:0000000000130000
#01252:0063
#01257:0023000000000000
#0125b:63
#01258:0000000000130000
#01355:00000000000000000000000000000013
#01358:00000000000000000000000000000013
#01352:53000000530000005300000000530000
#0135b:00000000000000000000000000530000
#06452:0052
#04956:00000014
#0525a:0000000000000014
#05252:16
#05258:0000000000000012
#000390:12
#0003c0:0022
#000371:0012
#001341:22
#001380:12
#0013b0:0022
#001361:0012
#002331:22
#002370:12
#0023a0:0022
#002351:0012
#003321:22
#0033c0:12
#003380:00220000
#003361:00120000
#003321:0022
#004321:13230000
#004361:0053000000000000
#0043b0:00130000
#004370:0000002300000000
#004360:0000000000130000
#004320:00000023
#0053b0:13230000
#005370:0053000000000000
#005321:00130000
#005361:0000002300000000
#005371:0000000000130000
#0053b1:00000023
#006321:13230000
#006361:0053000000000000
#0063b0:00130000
#006370:0000002300000000
#006360:0000000000130000
#006320:00000023
#007320:12
#007360:0022000000000000
#007330:00120000
#007370:0000002200000000
#007340:0012
#007380:0000000000220000
#008370:13
#0083b0:00230000
#0083b0:0013
#008380:0000000000230000
#0093b0:13
#009370:0023000000000000
#009360:00130000
#009320:0000002300000000
#0093b0:0013
#009370:0000000000230000
#009360:00000013
#009320:00000000000000000000000000005323
#009371:00000000000000000000000000130000
#0093b1:00000000000000000000000000000023
#010361:00130000
#010321:00000000000033230000000000000000
#0103b0:00130000
#010370:0000002300000000
#010321:00000000000000000013000000000000
#010351:00000000000000000000002300000000
#0103b0:00000000000000000013000000000000
#010380:00000000000000000000002300000000
#011350:13230000
#011320:0053000000000000
#011381:00132300
#0113b1:0000005300000000
#011350:00001323
#011320:0000000000530000
#0123b0:13230000
#012370:0053000000000000
#012320:0013
#012350:0000000000230000
#013320:13
#013360:0023000000000000
#013320:00130000
#013360:0000002300000000
#013320:0013
#013360:0000000000230000
#013320:00000000000000000000000013330000
#013350:00000000000000000000000000000023
#0133b1:00000000000000000000000000130000
#013381:00000000000000000000000000000023
#014321:00130000
#014361:0000002300000000
#014360:00130000
#0143a0:0000002300000000
#0143b0:00000013
#014370:0000000000000023
#014371:00000013
#014331:0000000000000023
#015321:0000000000001626
#015380:0000000000001626
#016380:1652555254002200
#016321:16
#016361:0052005200002200
#016331:00550000
#016341:0054
#017321:1323
#017371:00330000
#0183b1:1323
#018361:00330000
#0193c1:12
#019371:0022000000000000
#019321:00120000
#019371:0000002200000000
#0193c1:0012
#019371:0000000000220000
#020361:13
#020321:00230000
#020321:0013
#020351:0000000000230000
#021321:13
#021361:0023000000000000
#021371:00130000
#0213b1:0000002300000000
#021321:0013
#021361:0000000000230000
#021371:00000013
#0213b1:00000000000000000000000000005323
#021360:00000000000000000000000000130000
#021320:00000000000000000000000000000023
#022370:00130000
#0223b0:00000000000033230000000000000000
#022321:00130000
#022361:0000002300000000
#0223b0:00000000000000000013000000000000
#022380:00000000000000000000002300000000
#022321:00000000000000000013000000000000
#022351:00000000000000000000002300000000
#023381:13230000
#0233b1:0053000000000000
#023350:00132300
#023320:0000005300000000
#023381:00001323
#0233b1:0000000000530000
#024321:13230000
#024361:0053000000000000
#0243b1:0013
#024381:0000000000230000
#0253b1:13
#025371:0023000000000000
#0253b1:00130000
#025371:0000002300000000
#0253b1:0013
#025371:0000000000230000
#0253b1:00000000000000000000000013330000
#025381:00000000000000000000000000000023
#025320:00000000000000000000000000130000
#025350:00000000000000000000000000000023
#0263b0:00130000
#026370:0000002300000000
#026371:00130000
#026331:0000002300000000
#026321:00000013
#026361:0000000000000023
#026360:00000013
#0263a0:0000000000000023
#028370:13230000
#0283b0:0053000000000000
#028321:0000132300000000
#0283b0:0000001300000000
#028380:00000000000000000023000000000000
#028321:00000000000000000013000000000000
#028351:00000023
#0293b1:00000000000000130000000000000000
#029381:00000000000000000023000000000000
#030321:1923000000000000
#030350:0019000000000000
#0303b0:00230000
#030321:0000192300000000
#030351:00000000000000160000000000000000
#030371:00000000000000000022000000000000
#0303b1:0000000000001323
#031321:13230000
#031371:0053000000000000
#0313b0:00132300
#031360:0000005300000000
#031321:00001323
#031371:0000000000530000
#032361:13230000
#032321:0053000000000000
#0323b0:0000132300000000
#032321:0000001300000000
#032351:00000000000000000023000000000000
#0323b0:00000000000000000013000000000000
#032380:00000023
#033320:00000000000000130000000000000000
#033350:00000000000000000023000000000000
#034350:19
#0343b0:0023000000000000
#0363a0:00000000000000001424000000000000
#036370:00000000000000000000001300000000
#0363b0:00000000000000000000000000332300
#036321:00000000000000000000001300000000
#036361:00000000000000000000000000230000
#037320:00000000000000001424000000000000
#037360:00000000000000000000001300000000
#037320:00000000000000000000000000332300
#0373b1:00000000000000000000001300000000
#037371:00000000000000000000000000230000
#038350:0013
#038320:0000000000230000
#039320:1400002400000000000000000000000000000000000000000000000000000000
#039360:0000000014000024000000000000000000000000000000000000000000000000
#039320:00000014
#039380:0000000000000024
#0393a1:00000014
#039341:0000000000000024
#040321:0000000000000000000000000000000013000023000000000000000000000000
#040321:00000000000000000000001700332300
#0403b0:00000000000000000000001300000000
#040370:00000000000000000000000000230000
#0413b1:00000000000000001323000000000000
#041371:00000000000000000000001700000000
#0413b1:00000000000000000000000000332300
#041320:00000000000000000000001300000000
#041360:00000000000000000000000000230000
#042321:14
#042381:00260000
#0423a0:14
#042320:00260000
#042350:00000000000013230000000000000000
#042380:00000000000000000000132300000000
#0433b0:0013
#043380:0000000000230000
#0433b0:00000013
#043380:0000000000000023
#0443c0:000000000000120032003200000000000000000000000032525252525252525252525252220000000000000000000000
#044370:0000323200000000
#0443b0:000000000000000000000000000000000000000000000000000000000000000000000000000000000000000000000053005300530053005300530053005300530053005300530053000000000000000000000000000000000000000000000000
#044371:0012000000000000
#044321:000000003232220000000000000000000000000000000000
#044371:000000000000000000000000000000000000000000000000000000000000000000000000000000000000000000001253525352535253525352535253525352535253525352535253220000000000000000000000000000000000000000000000
#045321:12
#045341:003200000000000000000000000000000000000000000000
#045361:000000003200002200000000000000000000000000000000000000000000000000000000000000000000000000000000
#045380:000000000000001200000000000000000000000000000000000000000000000000000000000000000000000000000000
#0453a0:00000032000000000000000000000000
#0453c0:000000000000000000000032000000220000000000000000000000000000000000000000000000000000000000000000
#045361:00000000001200320000000000000000
#045321:000000000000000000000000000000000000000000000000000000000000000000000032000000000000000000000000
#046361:22
#0453c0:00000000000000120000000000000000
#045380:000000000000000000000000000000000000000000000000000000000000000000000032000000000000000000000000
#0463c0:22
#046360:001200000000000000000000
#046320:000000000022000000000000000000000000000000000000
#0463c1:001200000000000000000000
#046381:000000000022000000000000000000000000000000000000
#046321:0000000000000000000000000000001200000000000000000000000000000000
#046361:00000022
#046380:0000000000000000000000000000001200000000000000000000000000000000
#0463c0:00000022
#047320:14000024000000000000000000000000
#047360:0000003400000000000000000000000000000000000000000000000000000000
#0473a0:00000000140000240000000000000000
#047360:0000000000000000000000340000000000000000000000000000000000000000
#047320:00000000000000001400002400000000
#047360:0000000000000000000000000000000000000034000000000000000000000000
#048320:1323
#048370:00530000
#0483b0:0000000000132300
#048320:0000000000000013
#049320:23
#049370:0013000000000000
#049340:00230000
#049370:0000001300000000
#049330:0023
#049370:0000000000130000
#049320:00000023
#050320:13230000
#050370:0053000000000000
#0503b1:00132300
#050361:0000005300000000
#050320:00001323
#050370:0000000000530000
#0503b1:00000013
#050361:0000000000000023
#050320:0000000000000013
#051320:23
#051390:0013000000000000
#051360:00230000
#0513a0:0000001300000000
#051360:0023
#0513b0:0000000000130000
#051360:00000023
#052320:0018260000000000
#052381:00160000
#052361:0000002800000000
#052320:0000001422000000
#052341:001a
#052361:0000000000380000
#052381:00000036
#0523a1:0000000000000024
#053351:0011210000000000
#053321:00000057000000000000000000000000
#0533a0:0000112100000000
#053370:00000000005700000000000000000000
#053361:0000001121000000
#053331:00000000000000570000000000000000
#0533c1:0000000000110000
#053381:000000000000000000000000000000000000000000000000000000000000000000000000000000000000000000000000000000000000000000000000000000000000000000000000000000000000000000000000000000000000000000000000000000000000000000000000000000000000000000000000000000000000000000000000000000000000000000000000000000000000000000000000000000000000000000000000000000000000000000000000000000000000000000000000000000000000000000000000000000000000000000000000000000000000000000000000000000000000000000000000000000000000000000000000000000000000000000000000000000000000000000000000000000000000000000000000000000000000000000000000000000000000000000000000000000000000000000000000000000000000540000000000000000000000000000000000000000000000000000000000330000000000000000000000000000000000000000000000000000000000565200000000000000000000000000000000000000000000000000000000210000000000000000000000000000000000000000000000000000000000000000000000000000000000000000000000000000000000000000000000
#053330:0000000000110000
#053340:00000000000000000000005400000000
#053350:00000033
#053320:00000000000000000000000000560000
#053360:000000000000000000000000000000000000000000000000000000000000000000000000000000000000000000000000000000000000000000000000000000000000000000000000000000000000000000000000000000000000000000000000000000000000000000000000000000000000000000000000000000000000000000000000000000000000000000000000000000000000000000000000000000000000000000000000000000000000000000000000000000000000000000000000000000000000000000000000000000000000000000000000000000000000000000000000000000000000000000000000000000000000000000000000000000000000000000000000000000000000000000000000000000000000000000000000000000000000000000000000000000000000000000000000000000000000000000000000000000000000000000000000000000000000000000000000000000000000000000000000000000000000000000000000000000000000000000000000000000000000005200000000000000000000000000000000000000000000000000000000000000000000000000000000000000000000000000000000000000000000000000000000000000000000000000000000000000000000000000000000
#053370:0000000000000021
#054320:0015000000000000
#054350:00220000
#054390:0000001522000000
#054320:0000000000150000
#054350:00000022
#055360:0013000000000000
#055320:00530000
#055350:0000002300000000
#055381:0000001300000000
#0553b1:0053
#055371:0000000000230000
#0573b1:00000000000000000013000000000000
#057371:00000000000000000000002300000000
#057320:00000000000000000000001300000000
#057360:00000000000000000000000000230000
#058320:00000000000000000013000000000000
#058360:00000000000000000000002300000000
#0583b1:00000000000000000000001300000000
#058371:00000000000000000000000000230000
#059381:0013
#0593b1:0000000000230000
#0603a1:1400002400000000000000000000000000000000000000000000000000000000
#060361:0000000014000024000000000000000000000000000000000000000000000000
#0603a1:00000014
#060341:0000000000000024
#060320:00000014
#060380:0000000000000024
#061370:00000000000000000013000000000000
#0613b0:00000000000000000000002300000000
#061361:00000000000000000000001300000000
#061321:00000000000000000000000000230000
#062361:00000000000000000013000000000000
#062321:00000000000000000000002300000000
#062370:00000000000000000000001300000000
#0623b0:00000000000000000000000000230000
#0633a0:14
#063320:00260000
#063321:14
#063381:00260000
#063381:00000000000013230000000000000000
#063351:00000000000000000000132300000000
#064321:0012
#064361:0000000000220000
#064381:0000000000001222
#066371:13230000
#0663b1:0053000000000000
#066320:0000132300000000
#066350:0000000000140000
#0663a0:00000024
#067360:13230000
#067320:0053000000000000
#0673b1:0000132300000000
#067371:0000000000140000
#067321:00000024
#068371:13230000
#0683b1:0053000000000000
#068320:0000132300000000
#068350:0000000000140000
#0683a0:00000024
#0693c0:12
#069380:0022000000000000
#0693b0:00120000
#069370:0000002200000000
#0693a0:0012
#069360:0000000000220000
#070370:1222000000000000
#070370:0000000012220000
#071360:0012000022000000
#071320:00000000003200000000000000000000
