This file was generated by Ched 2.7.0.0.
#TITLE ""
#ARTIST ""
#DESIGNER ""
#DIFFICULTY 0
#PLAYLEVEL
#SONGID ""
#WAVE ""
#WAVEOFFSET 0
#JACKET ""
#REQUEST "ticks_per_beat 480"
#00002: 4
#BPM01: 118
#00008: 01
#TIL00: ""
#HISPEED 00
#MEASUREHS 00
#0001a:14
#00014:0014
#00119:14
#00113:0014
#00218:14
#00212:0014
#0031a:14
#00314:00140000
#00318:0014
#00312:00000014
#0081a:1414
#00814:00140000
#00810:41
#00912:14
#00918:00140000
#00914:0014
#0091a:00000014
#01012:14
#01014:00343400
#0111a:14
#01118:00343400
#01212:1414
#01218:00140000
#0131a:14
#01314:00140000
#01318:0014
#01312:00000014
#0141a:14
#01418:00343400
#01512:14
#01514:00343400
#0161a:14
#01617:0000000000000014
#01812:14
#01815:0000000000000014
#02018:14
#02014:00140000
#0201a:0014
#02112:14
#02118:00140000
#02114:0014
#0211a:00000014
#02214:14
#02212:00343400
#02318:14
#0231a:00343400
#02414:14
#02418:00140000
#02412:0014
#02410:41
#0251a:14
#02514:00140000
#02518:0014
#02512:00000014
#02618:14
#0261a:00343400
#02714:14
#02712:00343400
#0281a:14140000
#02814:00001414
#02918:14140000
#02912:00001414
#0301a:1414
#03014:00140014
#03010:41
#0311a:14
#03118:00343400
#03212:14140000
#03218:00001414
#03314:14140000
#0331a:00001414
#03412:1414
#03418:00140014
#03512:14
#03514:00340034340034340034340024000000
#03614:00140000
#03618:0014
#03612:00000014
#0361a:24
#03610:41
#03718:1414
#03712:00140000
#03714:00000014
#0381a:14
#03814:00140000
#03912:14
#03918:0000140000140014
#03914:00001414
#04018:00140000
#04014:0014
#0401a:00000014
#04012:24
#04114:1414
#0411a:00140000
#04118:00000014
#04412:14
#04415:0014
#04512:14
#04515:0014
#0481a:14
#04817:0014
#0481f:11
#0491a:14
#05012:14
#05015:0014
#05112:14
#0521a:1414
#05214:00140014
#05318:1414
#05312:00140014
#0541a:1414
#05414:00140014
#05518:1414
#05512:00140014
#05718:00140000
#05714:0014
#0571a:00000014
#05712:24
#0571f:21
#05710:0041
#05814:1414
#0581a:00140000
#05818:00000014
#05912:14
#05918:00140000
#0601a:14
#06014:0000140000140014
#06018:00001414
#06114:00140000
#06118:0014
#06112:00000014
#0611a:24
#06218:1414
#06212:00140000
#06214:00000014
#07018:1414000000000000
#07014:0000000014140000
#07116:00001400001400001400000000000000
#0431a:0024
#0471a:24
#04714:00240000
#04718:0024
#04712:00000024
#05618:24
#06412:0024
#01710:41
#01052:54
#0115a:64
#0145a:64
#01552:54
#0165a:54
#01657:0000000000000024
#01852:64
#01855:0000000000000024
#02254:54
#02358:64
#02658:64
#02754:54
#0315a:54
#03554:00000014
#03552:54
#04452:54
#04455:0024
#04552:54
#04555:0024
#0485a:54
#04857:0054
#0495a:54
#05052:64
#05055:0064
#05152:64
#0043a0:14
#004380:0034
#0053a0:34
#005380:0024
#006320:14
#006340:0034
#007320:34
#007340:0024
#010320:14
#010340:00343424
#0113a0:14
#011380:00343424
#0143a0:14
#014380:00343424
#015320:14
#015340:00343424
#0163a0:14
#016370:0000000000000054
#0173a0:00000024
#018320:14
#018350:0000000000000054
#019320:00000024
#022340:14
#022320:00343424
#023380:14
#0233a0:00343424
#026380:14
#0263a0:00343424
#027340:14
#027320:00343424
#0313a0:14
#031380:00343424
#035320:14
#035340:00340034340034340034340024000000
#038380:00001424
#042320:14240000
#042380:00001424
#043340:14240000
#0433a0:00001424
#044320:14
#044350:0054
#045320:34
#045350:0054
#046320:34000000000000340000000024000000
#0483a0:14
#048370:0034
#0493a0:34
#049370:0024
#050320:14
#050350:0034
#051320:34
#051350:0024
#059340:00001424
#0633a0:14240000
#063340:00001424
#064380:14240000
#064320:00001424
#0663a0:14
#066380:0034
#0673a0:34
#067380:0024
#068320:14
#068340:0034
#069320:34
#069340:0024
