This file was generated by Ched 2.7.0.0.
#TITLE ""
#ARTIST ""
#DESIGNER ""
#DIFFICULTY 0
#PLAYLEVEL
#SONGID ""
#WAVE ""
#WAVEOFFSET 0
#JACKET ""
#REQUEST "ticks_per_beat 480"
#00002: 4
#BPM01: 130
#00008: 01
#TIL00: ""
#VOLUME: ""
#HISPEED 00
#MEASUREHS 00
#0261f:11
#0021a:14
#00412:14
#0101a:14
#01114:14
#01110:41
#0121a:14
#01314:14
#01418:14
#01512:14
#01618:14
#01712:14
#01710:41
#0181a:14
#0191a:14
#02012:14
#02112:14
#02218:14
#02318:14
#02310:41
#02414:14
#02514:14
#03418:2616
#0341f:21
#03518:16
#03612:1616
#03712:16
#03710:41
#03818:16
#03812:0016
#04012:16
#04018:0016
#04218:2616
#04312:1616
#04310:41
#04418:16
#04412:0016
#04612:1616
#04718:1616
#04812:16
#04818:0016
#00510:41
#006390:14
#007390:24
#008330:14
#009330:3424
#0263a0:14
#0273a0:24
#028340:14
#029340:24
#030380:14
#031380:24
#032320:14
#033320:24
#039380:1626
#041320:1626
#045380:1626
#049320:1626
#050380:14
#051380:3400002400000000
