This file was generated by Ched 2.7.0.0.
#TITLE ""
#ARTIST ""
#DESIGNER ""
#DIFFICULTY 0
#PLAYLEVEL
#SONGID ""
#WAVE ""
#WAVEOFFSET 0
#JACKET ""
#REQUEST "ticks_per_beat 480"
#00002: 4
#BPM01: 130
#00008: 01
#TIL00: ""
#VOLUME: ""
#HISPEED 00
#MEASUREHS 00
#0261f:11
#02616:00000012
#0261c:0000000000000012
#02618:12
#02612:24
#00918:0026002600130000
#00912:26260024
#0091a:00000024
#01018:00001300000000001300001300000000
#0101b:00130000
#01012:0000130000000013
#01015:2300000000130000
#0111b:13000013000000000000000000000000
#01112:0013000000000013
#01115:0000001300130000
#01118:00000000000000001300001300000000
#01110:41
#0121b:1313000000000000
#01212:00000013000000000000000000000000
#01218:0000001300000000
#01215:0000000000000013
#01318:1313000013000000
#01312:0000130000130000
#0131b:0000130000130000
#01315:0023
#01412:1323
#0141b:1323
#01418:00001300001300000000130000001300
#01415:00000013000013000000000023000000
#01512:1313
#01515:00001300001300000000001300000000
#01518:00000013000013000000001300000000
#0151b:1313
#01612:1313
#01615:0013001300000000
#01618:00130000
#0161b:1300000000000013
#0171b:1323
#01716:1313
#01714:0013000000000000
#01712:00000000130000000000001300000000
#01717:00000000130000000000001300000000
#01719:0000001300000000
#01710:41
#0181a:0014140000000000
#01812:2600001313000000
#01816:00000013000000000000000000001300
#01817:0013
#01819:00000000000000000000001300000000
#01814:00000000000000000000001300000000
#01916:00130000140014000000000000000000
#0191b:0000000013000013
#01915:0000000000130000
#01912:0013
#01918:00000013
#0201b:00001300130000000000001300000000
#02012:1600001313000013
#02016:00000014000000000000000000000000
#02018:0000000013000013
#02015:00000000000000000000001300000000
#02118:00130000
#02115:00130000000023002300000000000000
#0211b:0023
#02216:0013
#02214:00000000000000000000001300000000
#02212:0014140000000000
#0221b:0000001313000000
#02217:00000013000000000000000000001300
#02218:16
#02219:00000000000000000000001300000000
#02316:0000141400000000
#02312:0000000013000013
#02318:0000000000130000
#0231b:0013
#02315:00000013
#02317:00130000000000000000000000000000
#02310:41
#02418:16000000000000000000001300000000
#02412:00001300130000000000001300000000
#0241b:0000001313000013
#02416:00000014000000000000000000000000
#02415:0000000013000013
#02515:00130000
#02512:00000000000000130000000000000000
#02518:00130000000000230000000000000000
#00218:13
#0031b:13
#00415:13
#00512:13
#00510:41
#02714:12
#0271a:0012000000000000
#02712:00120000
#02718:0000001200000000
#02818:00000012
#02812:0000000000000012
#02816:12
#0281a:24
#0291a:12
#02914:0012000000000000
#0291c:00120000
#02916:0000001200000000
#02912:0000000000000012
#02918:0000000000120000
#0301c:12
#03012:12
#03016:0032320000000000
#03018:0032320000000000
#03218:12
#03316:12
#0311c:0000001200000000
#03112:1200000000120000
#03115:00120000
#03119:0012000000000000
#0341b:0013
#03416:0013
#03412:00000013
#03414:0000000000000013
#0341f:21
#03418:26
#03516:13
#0351b:1300001300000000
#03519:0013000000000000
#03517:00130000
#03512:0000130000130000
#03612:2613
#03617:0013
#0361b:00000013
#03619:0000000000000013
#03717:13
#03712:1300001300000013
#03714:0013000000000000
#03716:00130000
#0371b:0000130000130000
#03710:41
#03816:00130000
#0381b:00130013
#03812:26000013
#03818:2600000000000013
#0391b:1300001300000013
#03912:1300130000130000
#03915:0013001300000000
#03918:00130000
#04018:0013001300000013
#0401b:23130000
#04015:0000130000130000
#04012:2300001300000000
#04115:1300130000130000
#04112:0013001300000000
#0411b:1300130000130000
#04118:0013001300000000
#04612:26140013
#0461b:00000013
#04615:0000000000000013
#04618:26
#04616:00240000
#0421a:00140000
#04212:0014
#04216:28000013
#0421b:00000013
#04214:0000000000000013
#04412:28140013
#0441a:0014
#04417:00000013
#04419:0000000000000013
#04312:1300001300000000
#04314:0013000000000000
#04316:00130000
#04318:13
#0431b:0000130000130000
#04317:0000001300000000
#04310:41
#0451b:1300001300000013
#04519:0013000000000000
#04517:00130000
#04515:13
#04512:0000130000130000
#04516:0000001300000000
#04718:0013001300000000
#04715:00130000
#0471b:2300130000230000
#04712:2300002300000013
#04815:0013002300000013
#04812:23130000
#04818:0000130000230000
#0481b:2300001300000000
#0491b:0013001300000000
#04918:2300130000130000
#04912:2300130000130000
#04915:0013002300000000
#05118:1232320000000000
#05116:1232320000000000
#00612:0023
#0061b:23
#00715:23
#00712:0023
#00815:23
#00812:0023
#05012:23
#0501b:23
#05016:00323232
#05018:00323232
#01058:00000000000000000000005300000000
#0115b:00000063000000000000000000000000
#01158:00000000000000000000005300000000
#01252:00000063000000000000000000000000
#01355:00005313
#01352:0000000000230000
#0135b:0000000000230000
#01358:00006313
#01558:00000000000000000000005300000000
#01555:00000000000000000000006300000000
#01757:00000000000000000000005300000000
#01752:00000000000000000000005300000000
#01756:0053
#0175b:0053
#01852:16
#02058:0000000000000063
#02052:16
#02458:16
#02455:0000000000000053
#02558:00530000000000630000000000000000
#02552:00000000000000630000000000000000
#02555:00630000
#00258:53
#0035b:53
#00455:63
#00552:63
#02152:00000013
#02158:00000013
#02155:00530000000000005300000000000000
#0215b:0053
#02758:0000005200000000
#02956:0000006200000000
#02958:0000000000520000
#0305c:62
#03052:52
#03056:0012
#03058:0012
#02658:52
#02856:62
#03258:52
#03356:62
#0315c:0000006200000000
#03152:0000000000520000
#03458:16
#0345b:0053
#0355b:0000005300000000
#03557:0000000000130000
#03552:0000000000530000
#03652:1663
#03752:0000006300000000
#0375b:0000000000630000
#03756:0000000000130000
#03852:1613
#03858:16
#03856:00530000
#0385b:00530000
#03857:0013
#0395b:0000005300000000
#03952:0000000000630000
#04058:0000006300000000
#04055:0000000000530000
#04652:16640000
#04658:16
#0465a:0014
#04656:00641400
#04152:0000006300000000
#04155:0000000000630000
#04158:0000006300000000
#0415b:0000000000630000
#0425a:00540000
#04256:1814
#04252:0014
#04452:18640000
#0445a:0014
#04456:0014
#04356:0000000000130000
#04352:0000005300000000
#04357:0000005300000000
#0435b:0000000000530000
#0455b:0000006300000000
#04556:0000006300000000
#04552:0000000000630000
#04557:0000000000130000
#04958:0000000000530000
#04952:0000000000530000
#04955:0000005300000000
#0495b:0000005300000000
#05158:22
#05156:22
#04855:0000005300000000
#04858:0000000000530000
#04752:0000005300000000
#0475b:0000000000530000
#00952:00000014
#0095a:00000014
#01956:00530000000000000000000000000000
#02258:16
#02357:00530000000000000000000000000000
#05052:53
#0505b:53
#002380:13
#0033b0:33
#004380:23
#004351:13
#005321:33
#006351:23
#0063b0:13
#0073a0:34
#008390:35
#009380:26
#009350:0000000013230000
#010380:00000000000000000000001300000000
#0103b0:0000000000000023
#0113b0:00000013000000000000000000000000
#011380:0000002300000000
#011380:00000000000000000000001300000000
#0113b0:0000000000000023
#012320:00000013000000000000000000000000
#012350:0000002300000000
#012350:0013
#012320:00000000000000000000002300000000
#0123b1:00000000000000000000001300000000
#012381:0000000000000023
#013351:00001323
#013321:0000000000530000
#013380:00001323
#0133b0:0000000000530000
#015380:00000000000000000000001300000000
#0153b0:0000000000000023
#015351:00000000000000000000001300000000
#015321:0000000000000023
#0163b1:0013
#016381:00000000000000000000002300000000
#016350:00000000000000000000001300000000
#016320:0000000000000023
#0173b0:0000000013000023
#017370:00000000000000000000003300000000
#017361:0000000013000023
#017321:00000000000000000000003300000000
#0183b1:0000000000000013
#0193b1:00230000000000000000000000000000
#019360:00130000000000000000000000000000
#019320:00230000
#020380:0000000000000013
#0213b0:00230000000000000000000000000000
#021351:00130000000000000000000000000000
#021321:00230000
#021351:0013
#021321:00000023
#0213b0:0013
#021380:00000023
#022320:0000000000000013
#023320:00230000000000000000000000000000
#023371:00130000000000000000000000000000
#0233b1:00230000
#024351:0000000000000013
#025321:00230000000000000000000000000000
#025380:00130000000000000000000000000000
#0253b0:00230000
#025351:00130023
#025321:00000000000000330000000000000000
#025380:00000000000000130000000000000000
#0253b0:00000023
#026380:12
#0263c0:0022
#027380:0000001200000000
#0273c0:0000000000220000
#028360:12
#028320:0022
#029360:0000001200000000
#029320:0000000000220000
#029381:0000000000120000
#0293c1:0000000000000022
#0303c1:12
#030381:0032320022000000
#030320:12
#030360:0032320022000000
#0313c0:0000001200000000
#031380:0000000000220000
#031321:0000000000120000
#032361:22
#032380:12
#0333c0:22
#033361:12
#033321:00000022
#034321:13230000
#0343b0:00133300
#034370:00000023
#035320:0000001300330000
#035360:0000000000000023
#0353b1:0000001300000000
#035371:0000000000230000
#0363b0:13230000
#036321:00133300
#036361:00000023
#0373b1:0000001300330000
#037371:0000000000000023
#037320:0000001300000000
#037360:0000000000230000
#038361:00130000
#038321:0023
#0383b0:00130000
#038370:0023
#0393b0:0000001300000000
#039380:0000000000230000
#039321:0000000000130000
#039351:0000000000000023
#040381:0000001300000000
#0403b1:0000000000230000
#040350:0000000000130000
#040320:0000000000000023
#041320:0000001300000023
#041350:0000000000330000
#041381:0000001300000023
#0413b1:0000000000330000
#042321:14240000
#0423a0:00140000
#042360:0024
#043370:0000001300000023
#0433b0:0000000000330000
#043321:0000001300000000
#043361:0000000000230000
#0443a0:14240000
#044321:00140000
#044361:0024
#045361:0000001300000023
#045321:0000000000330000
#0453b0:0000001300000000
#045370:0000000000230000
#046361:00140000
#0463a1:0024
#046320:00140000
#046360:0024
#047320:0000001300000000
#047350:0000000000230000
#0473b1:0000000000130000
#047381:0000000000000023
#048351:0000001300000000
#048321:0000000000230000
#048380:0000000000130000
#0483b0:0000000000000023
#0493b0:0000001300000023
#049380:0000000000330000
#049351:0000001300000023
#049321:0000000000330000
#0503b1:13
#050381:00323232
#051381:3232322500000000
#050320:13
#050360:00323232
#051360:3232320000000000
#051330:0000002500000000
