This file was generated by Ched 2.7.0.0.
#TITLE ""
#ARTIST ""
#DESIGNER ""
#DIFFICULTY 0
#PLAYLEVEL
#SONGID ""
#WAVE ""
#WAVEOFFSET 0
#JACKET ""
#REQUEST "ticks_per_beat 480"
#00002: 4
#BPM01: 130
#00008: 01
#TIL00: ""
#VOLUME: ""
#HISPEED 00
#MEASUREHS 00
#01012:23130000
#0101b:00001300000000000000001300000000
#01018:0013
#01115:13
#01112:00000013000000000000000000000000
#01118:0013
#0111b:00000000000000000000001300000000
#01110:41
#01318:13130000
#01315:0013000000000000
#01312:0023
#01212:1300000000000014
#01215:00130000
#01218:0013000000000000
#0121a:0014
#01216:00000000000000000000001400000000
#01418:1313000000000000
#01415:0000131300000000
#01712:00130000
#0171b:0000001300000000
#01718:0013000000000000
#01715:1323
#01710:41
#0161b:13
#01615:0013000000000000
#01612:0014
#0161a:0000000000000014
#01616:00000000000000000000001400000000
#01618:00130000
#01512:1313000013000000
#0151b:0000131300000000
#01812:00160000
#0181a:0000000014000014
#01814:00000000000000000000001400000000
#01818:26
#01915:0000130000130000
#01918:0000001300001300
#01912:0013
#0191b:0000000000000013
#02212:1600000014000014
#02218:00160000
#0221a:00000000000000000000001400000000
#02318:0000130000130000
#02315:0000001300001300
#0231b:0013
#02312:0000000000000013
#02310:41
#0201b:00130000
#02012:00130000
#02018:0000000014000014
#02014:00000000000000000000001400000000
#02015:13
#0211a:00140000000000000000000000000000
#02118:0023
#02112:0023
#02115:0000002300000000
#02412:00130000
#0241b:00130000
#02414:0000000014000014
#02418:13000000000000000000001400000000
#02512:00140000000000140000000000000000
#02513:00140000
#0251a:00140000000000240000000000000000
#02519:00140000
#02615:00000013
#02618:0000000000000013
#02612:13
#0261f:11
#02715:13130000
#0271b:0013000000000000
#02718:0000001300000000
#02818:00000013
#02815:0000000000000013
#0281b:13
#02918:13130000
#02912:0013000000000013
#02915:0000001300000000
#03015:0033130000000000
#03012:13
#0311b:13
#03118:0013001300000000
#03115:00130000
#03218:13
#03212:13
#0331b:13
#03315:13
#03412:00000013
#03418:2600000000000013
#0341f:21
#03515:13
#0351b:0013000000000000
#03512:00130000
#03518:0000001300000000
#03612:16
#0361b:00000013
#03615:0000000000000013
#03718:13
#03712:0013000000130000
#0371b:00130000
#03715:0000001300000000
#03710:41
#03812:15
#03819:15
#03815:00000013
#03818:0000000000000013
#03912:13
#0391b:0013001300000000
#03915:00130000
#03918:0000000000130000
#0401a:0014000000000000
#04016:0000140000140000
#04012:2400001400000000
#04112:0014000000000000
#04116:00140000
#0411a:1400001400000000
#04212:28130013
#04215:0000000000000013
#04318:13130000
#0431b:0013000000000000
#04315:0000001300000000
#04310:41
#0441b:00130013
#04418:0000000000000013
#04416:28
#04515:13130000
#04512:0013000000000000
#04518:0000001300000000
#0451b:0000000000130000
#04615:0000000000000013
#04618:00000013
#04612:25230000
#04619:25
#0461b:00230000
#04712:0013001300000000
#04718:00130000
#04715:0000000000130000
#0471b:23
#04812:0014000000000000
#04816:0000140000140000
#0481a:2400002400000000
#0491a:0014000000000000
#04916:00140000
#04912:2400002400000000
#05118:1333330000000000
#05115:1333330000000000
#00916:24
#00912:00000024
#0091a:00000024
#00818:23
#00715:23
#0061b:23
#05012:23
#0501b:23
#00510:41
#01152:00000053000000000000000000000000
#0115b:00000000000000000000006300000000
#01552:0053
#01555:00000000000000000000001300000000
#0105b:00000000000000000000006300000000
#0185a:0000000000000054
#01858:16
#02252:1600000000000064
#02058:0000000000000064
#02055:13
#0215a:00640000000000000000000000000000
#02158:0053
#02152:0053
#02155:00000013
#0215b:00000013
#02552:00000000000000640000000000000000
#0255a:00000000000000540000000000000000
#02758:0000005300000000
#02652:53
#02955:0000006300000000
#0285b:63
#03055:00630000
#03052:6313
#03258:53
#03252:53
#03158:0000005300000000
#03458:16
#03558:0000005300000000
#03652:16
#03755:0000006300000000
#03752:0000000000630000
#03852:15
#03859:15
#04056:0000000000540000
#04052:0000005400000000
#0415a:0000006400000000
#04252:18530000
#04255:0013
#0425b:0013
#04355:0000005300000000
#0445b:00630000
#04456:18
#04452:0013
#04458:0013
#04558:0000006300000000
#0455b:0000000000630000
#04652:15530000
#04659:15
#04655:0013
#04658:0013
#0465b:00530000
#0395b:0000006300000000
#03958:0000000000630000
#04856:0000000000640000
#0485a:0000005400000000
#04752:0000005300000000
#04755:0000000000530000
#05158:23
#05155:23
#0335b:53
#03355:53
#04952:0000005400000000
#00858:53
#00755:53
#0065b:53
#01755:00000013
#02458:13
#05052:53
#0505b:53
#002380:13
#0033b0:33
#003380:00000023
#004350:13
#005320:33
#005350:00000023
#0063b0:13
#006380:0023
#007350:13
#007320:0023
#008380:13
#0083b0:0023
#009360:1434343424000000
#0103b0:00000000000000000000001300000000
#010380:0000000000000023
#011320:00000013000000000000000000000000
#011350:0000002300000000
#0113b0:00000000000000000000001300000000
#011380:0000000000000023
#013320:00001323
#0133b1:00001323
#0143b1:0000000013330000
#014381:0000000000003323
#015321:0013
#015351:00000000000000000000002300000000
#017351:00001323
#0183a1:0000000000000014
#019381:00240000000000000000000000000000
#020381:0000000000000014
#0213a1:00340000000000000000000000000000
#021381:00240000
#021381:0013
#0213b1:00000023
#021320:0013
#021350:00000023
#022320:0000000000000014
#023340:00240000000000000000000000000000
#025320:00000000000000140000000000000000
#025340:00000024
#0253a1:00000000000000140000000000000000
#025381:00000024
#026321:13
#026351:0023
#027381:0000001300000000
#0273b1:0000000000230000
#0283b1:13
#028381:0023
#029351:0000001300000000
#029321:0000000000230000
#030321:1323
#030351:0033330000000000
#031381:0000001300000000
#0313b1:0000000000230000
#032381:13
#0333b1:33
#033381:00000023
#032320:13
#033350:33
#033320:00000023
#0343b0:00130000
#034380:0023
#034351:00130000
#034321:0023
#035381:0000001300000000
#0353b1:0000000000230000
#036321:00130000
#036351:0023
#036380:00130000
#0363b0:0023
#037350:0000001300000023
#037320:0000000000330000
#038320:00130000
#038350:0023
#0383b1:00130000
#038381:0023
#0393b1:0000001300000023
#039381:0000000000330000
#040321:0000001400000024
#040361:0000000000340000
#0413a1:0000001400000000
#041361:0000000000240000
#0423b1:00132300
#042320:00130000
#042350:0023
#043350:0000001300000000
#043320:0000000000230000
#044320:00132300
#0443b1:00130000
#044381:0023
#045381:0000001300000023
#0453b1:0000000000330000
#0463b1:00130000
#046381:0023
#046320:00130000
#046350:0023
#047320:0000001300000023
#047350:0000000000330000
#0483a0:0000001400000024
#048360:0000000000340000
#049320:0000001400000000
#049360:0000000000240000
#0503b0:13
#051380:3333332500000000
#050321:13
#051351:3333330000000000
#051331:0000002500000000
