This file was generated by Ched 2.7.0.0.
#TITLE ""
#ARTIST ""
#DESIGNER ""
#DIFFICULTY 0
#PLAYLEVEL
#SONGID ""
#WAVE ""
#WAVEOFFSET 0
#JACKET ""
#REQUEST "ticks_per_beat 480"
#00002: 4
#BPM01: 130
#00008: 01
#TIL00: ""
#VOLUME: ""
#HISPEED 00
#MEASUREHS 00
#0261f:11
#02618:12
#02612:12
#02616:00000012
#02614:0000000000000012
#00915:0000000000162600
#00912:002626261c130000
#00918:26
#0091b:000000000000000000000000000000003333000000000000
#01018:16
#01015:0014000000140000
#01012:26000000130000001300000000140000
#0101b:00000000130000001300001300000000
#01017:0000001400000013
#01016:00000000000000000000000000000014
#01415:0000000026132600
#01418:0000000000160013
#01412:1300001800000016
#0141b:13
#01416:00001318000000000000000000000000
#01417:00000000001300000000000000000000
#01117:0014000000140000
#01112:1300000000001300000000000000000013000000000000000013000000000000
#0111a:00000000001400000000000000000000
#0111b:13001313
#01116:00000000000013140000001300000000
#01118:0000000000000013
#01110:41
#01212:13000000001400000000001400000000
#0121b:13
#01217:00000013000013000000000000000000
#01216:0014000000000000
#01214:0016
#0121a:00000000000000000000001400000000
#00818:0012000000120000
#0081a:00122212
#0081c:0000001200000012
#00814:22
#00712:00120012
#0071a:22
#00714:0022
#0131b:130000000000130000000000130000333333000000000000
#01316:1414141400000014
#01312:000000130000000000000000230000333333000000000000
#01512:1300000018001300000000000000000000000013000000000000000000000000
#0151b:1300000000000000000000001300000000000000000000000013000000000000
#01516:00000000001800000000000000000000
#01518:00000000000000001400001300000000
#01515:0013
#01514:0000000000000014
#01612:13000000130000001300001300000000
#0161b:1300130013000013
#01617:0000000014000000000000000000000000000013000000000000000000000000
#01615:0000001400000000
#01616:0000000000000000000000000000000000000000000000000013000000000000
#01712:1313
#01715:00000000000016000000001300000000
#01718:00000000000000000000001300000000
#0171b:0023
#01710:41
#01815:00001316000000000000001600001600
#01812:2c00130016130000
#01816:0000001400000000
#0181b:00000000000000000000000000130000
#01818:0016
#02412:1c000000000000001c00161c00001c00
#02418:00000000000013000000000000160000
#02416:00001414000000000000000000000000
#0241b:00130000
#02215:0000001300190000
#02212:13000000130000001600001600190000
#02218:0000000016000016
#02216:00001414000000000000000000000000
#0221b:13
#02312:1c16001c000013000000000000001300
#02318:00160000
#02316:00000000000000000000141400000000
#0231b:0000001313000000
#02310:41
#02116:00000013000000000000140000000000
#02112:0000001b00000000000000000000000000000000000000001300000000000000140000002c0000000000000000000000
#0211a:000000000000000000000000000000000014000000000000
#02118:1300002300000000
#02113:001b0000
#02115:0000001300000000
#0211b:0023
#01915:13160000160000000000000000000000
#01918:00000013000000000000000000000000
#01912:0000001313000000
#0191b:0000001300000013
#01916:00000000000000000000141400000000
#02018:0013000016130000
#02015:00000016000000000000000000131900
#0201b:00130000
#02016:0000001400000000
#02012:1c000000000000001600001900000000
#02512:1c00001c00000000001c00001c00000000001c00002c0000000000000000000032003200000000000000000000000000
#02518:000000000000000000000000000000003232000000000000
#02712:1200001200000000
#02718:1200001200000000
#0271a:0012000000000000
#02716:0000120000120000
#0271c:0000120000120000
#02816:12
#0281c:12
#02818:00000012
#0281a:0000000000000012
#0291c:1200001200000000
#02916:1200001200000012
#02914:0012000000000000
#02918:0000120000120000
#02912:00120000
#0301c:1200001200000000
#03018:0032120000000000
#03012:1200001200000000
#03016:0032120000000000
#0311c:1200001200120000
#03116:1200001200000000
#03114:0012000000000000
#03112:0000120000120000
#03118:00120000
#0311a:0012000000000000
#03212:12
#0321c:12
#03316:12
#03318:12
#03412:13
#0341b:00130013
#03417:2700001313000000
#03416:0000000000000014
#0341f:21
#03812:1300130013000013
#03816:0013001300000000
#03817:2700130000000013
#0381b:0000001300001300
#0391b:1300001300130000
#03912:18131300
#03916:0014001300000013
#03917:00131313
#04016:1800141300130000
#04012:23131313
#0401b:0013001300000013
#04017:0013
#04112:1c141c1400000000
#04118:0000000000140000
#04114:0000000000140000
#0411a:0014002400000000
#0491a:0014001400000000
#04914:0000000000140000
#04918:0000000000140000
#04912:2c141c2400000000
#0351b:0000131300130000
#03517:00000013
#03512:13131300
#03516:1814001300000013
#03612:27130013
#03616:0000001313000014
#0361b:13
#0371b:13131300
#03712:1800131300130000
#03716:0014000000001300
#03717:0000001300000013
#03710:41
#04212:27140013
#04212:00000013
#04216:0000000000000014
#0421b:0000000000000013
#0421a:14141400
#04218:0000001400000000
#04214:0000001400000000
#04215:0014000000000000
#04316:1814140013000000
#04312:1300131400140000
#0431b:0013000000000000
#04317:00000013
#0431a:0000001400000014
#04310:41
#0461b:1300130013000013
#04617:0013001300000000
#04612:2700001300001300
#04616:0000230000000013
#04712:1300001300130000
#04716:2814130013001300
#0471b:00131300
#04717:0000002300000013
#04817:0000001300130000
#0481b:13131313
#04816:00141300
#04812:2813002300000013
#0441b:00000013
#0441b:00000013
#04412:1400140014000013
#0441a:00140000
#04414:0000001400000000
#04418:0000001400000000
#04417:2714000000000000
#04416:0000000000000014
#0451b:13130000
#04516:0014140000001300
#04512:1813001400000014
#0451a:0000001400140000
#04517:0013
#00212:1c
#00314:1a
#00412:1a
#00514:1a
#00510:41
#05014:0018000000000000
#05016:0000001400000000
#05017:0000000022122212
#05012:2c
#05015:00260000
#05118:1223142600000000
#05115:0013000000000000
#05112:0000002600000000
#05116:22
#05114:00240000
#00614:22
#0061a:2222
#00955:0000000000561600
#01458:0000000000460000
#01452:0000000000000036
#01058:16
#0105b:00000000000000000000005300000000
#01152:0000000000006300000000000000000000000000000000000023000000000000
#01156:00000000000000000000005300000000
#01257:00000063000063000000000000000000
#01254:0036
#01252:00000000000000000000005400000000
#0125a:00000000000000000000005400000000
#0135a:00000014
#01352:00005314
#0135b:00535300
#01356:0000002400000000
#01552:0000000000000000000000000000000000000023000000000000000000000000
#01555:0053
#01558:00000000000000003400006300000000
#01554:00000000000000000000004400000000
#0155b:0000000000000000000000000000000000000000000000000023000000000000
#0165b:0053
#01657:0000000000000000000000000000000000000023000000000000000000000000
#01656:0000000000000000000000000000000000000000000000000023000000000000
#01652:00000000000000000000006300000000
#01752:0053
#0175b:0053
#01755:00000000000000000000005300000000
#01758:00000000000000000000005300000000
#01852:1c16
#01855:00000000000000000000004600003600
#01858:0016
#02452:1c000000000000003c00004c00003c00
#02252:13000000000000000000003600000000
#02258:0000000046000046
#0225b:13
#02352:00360000000000000000000000000000
#02358:00460000
#02152:003b000000000000000000001c000000
#02153:004b0000
#01955:00460000360000000000000000000000
#02052:1c000000000000001600003900000000
#02055:0000000000000049
#02058:0016
#02552:004c00003c00001c0000000000000000
#02658:52
#02652:52
#02758:0000005200000000
#0275c:0000000000520000
#02756:0000000000520000
#02856:62
#0285c:62
#02958:0000000000620000
#02956:0000005200000000
#0305c:6200002200000000
#03058:00521200
#03052:5200002200000000
#03056:00621200
#03156:0000005200000000
#03152:0000000000520000
#0315c:0000000000520000
#0325c:52
#03252:52
#03356:52
#03358:52
#03452:53
#0345b:00630000
#03457:4700002353000000
#03857:47534300
#03852:53535300
#03856:0023002300000000
#0385b:0000002300000000
#03952:3823
#0395b:0000005300530000
#03957:00002323
#03956:0000005300330000
#04056:4800005300530000
#04052:00002323
#0405b:0000005300330000
#04057:0023
#04152:1c00005400000000
#0415a:0000005400000000
#04154:0000000000540000
#04158:0000000000540000
#0495a:0000006400000000
#04954:0000000000640000
#04958:0000000000640000
#04952:1c00006400000000
#0355b:0000001300630000
#03557:00000023
#03552:1323
#03556:0000006300130000
#03652:37530000
#03656:0000002363000000
#0365b:63
#0375b:1323
#03752:0000001300530000
#03756:00000023
#03757:0000005300130000
#04356:1823
#04352:0000003400640000
#04357:00000023
#0435a:0000005400440000
#0465b:63636300
#04657:0023002300000000
#04652:3700002300000000
#04656:00633300
#04752:0000006300630000
#04756:48002323
#0475b:0023
#04757:0000006300430000
#04857:0000006300630000
#0485b:00002323
#04856:0023
#04852:3800006300430000
#0425a:64545400
#04252:37541400
#04258:0000002400000000
#04255:0024000000000000
#04254:0000002400000000
#04452:54646400
#0445a:00641400
#04454:0000002400000000
#04458:0000002400000000
#04457:4724000000000000
#0455a:0000004400540000
#04556:00000023
#04557:0023
#04552:1800006400340000
#00252:5c
#00354:6a
#00452:5a
#00554:6a
#002320:1c
#003320:22
#003341:1a
#0043c1:22
#004320:1a
#005320:22
#005341:1a
#0053c1:00000022
#006341:12
#007321:26
#0073a0:12
#008380:26
#008341:12
#009321:26
#009380:1600002600000000
#009350:0000000000160000
#0093b0:000000000000000000000000000000003333230000000000
#0103b0:00000000000000000000001300000000
#010370:00000000000000000000000000230000
#011320:00000013000000000000000000000000
#011360:00000000002300000000000000000000
#011360:00000000000000000000001300000000
#011320:0000000000000000000000000000000000000000000000000053000000000000
#011350:0000000000000023
#012370:00000013000000000000000000000000
#0123b0:00000000002300000000000000000000
#012370:0000001300000000
#0123b0:0023
#012320:00000000000000000000001400000000
#0123a0:0000000000000024
#0123a1:00000000000000000000001400000000
#012321:0000000000000024
#0133b1:00133300
#013361:0000005400000000
#013321:000000000000000000000000000000333333240000000000
#013320:0013
#0133b0:000000000000000000000000000000333333000000000000
#0133a0:00000024
#015350:0013
#015320:0000000000000000000000000000000000000053000000000000000000000000
#015340:00000000000000000000002400000000
#015381:00000000000000000000001300002400
#0153b1:0000000000000000000000000000000000000000000000000053000000000000
#0163b1:00000000000000001300002300000000
#016371:0000000000000000000000000000000000000053000000000000000000000000
#016320:00000000000000000000001300002300
#016360:0000000000000000000000000000000000000000000000000053000000000000
#017350:16
#0173b0:0023000000000000
#017351:0016000000000000
#017321:00230000
#017350:00160000
#0173b0:0000002300000000
#017320:0000000013000023
#017380:00000000000000000000003300000000
#0173b1:0000000013000023
#017351:00000000000000000000003300000000
#0183b1:0000132300000000
#019371:0013
#0193b1:0000000000230000
#019321:00000013
#019361:0000000000000023
#020321:0000132300000000
#0223b1:00130000
#022381:0000002300000000
#023361:0013
#023321:0000000000230000
#0233b1:00000013
#023371:0000000000000023
#024321:00130000
#024351:0000002300000000
#0253c1:0000000000120000
#025381:000000000000000000000000000000003232220000000000
#025360:0000000000120000
#025320:000000000000000000000000000000003232220000000000
#026380:12
#0263c0:00005222
#026321:12
#026361:0022
#027380:0000001200000022
#0273c0:0000000000320000
#027361:0000000000120000
#027321:0000000000000022
#028361:12
#028321:00005222
#0283c0:12
#028380:0022
#029361:0000001200000000
#029321:0000000000220000
#029380:0000000000120000
#0293c0:0000000000000022
#0303c0:1200005200000000
#030380:0032320022000000
#030321:1200005200000000
#030361:0032320022000000
#031361:0000001200000000
#031321:0000000000320000
#0323c1:32
#033361:32
#0333c1:00000022
#0313c0:0000000000120000
#032320:32
#033380:32
#033320:00000022
#034320:13
#034370:00230000
#0343b1:00132300
#034371:0000005300000000
#034370:0013
#034320:00000023
#035360:0000001300230000
#035320:0053
#0353b1:0000000000130023
#035371:00000053
#0363b1:13
#036361:00230000
#036320:00132300
#036360:0000005300000000
#036361:0013
#0363b1:00000023
#037371:0000001300230000
#0373b1:0053
#037320:0000000000130023
#037360:00000053
#038320:13333300
#038360:0053005300000000
#038370:00000023
#038371:00132300
#0383b1:0000005300000000
#0393b0:0000001300330023
#039370:00005353
#039361:0000001300230000
#039321:0053
#040360:0000001300330023
#040320:00005353
#0403b1:0000001300230000
#040371:0053
#041320:0000001400000024
#041380:0000000000340000
#0413a1:0000001400000024
#041341:0000000000340000
#0423a1:14343400
#042351:0054000000000000
#042341:0000005400000000
#042361:00000023
#042320:00142400
#042380:0000005400000000
#0433a1:0000001400240000
#043361:0053
#043320:0000000000140024
#043370:00000053
#044320:14343400
#044370:0054000000002300
#044380:0000005400000000
#0443a1:00142400
#044341:0000005400000000
#045320:0000001400240000
#045370:0053
#0453a1:0000000000140024
#045361:00000053
#0463b1:13333300
#046371:0053005300000000
#046361:00000023
#046360:00132300
#046320:0000005300000000
#047321:0000001300330023
#047361:00005353
#047370:0000001300230000
#0473b0:0053
#048371:0000001300330023
#0483b1:00005353
#048320:0000001300230000
#048360:0053
#0493a1:0000001400000024
#049341:0000000000340000
#049320:0000001400000024
#049380:0000000000340000
