This file was generated by Ched 2.7.0.0.
#TITLE ""
#ARTIST ""
#DESIGNER ""
#DIFFICULTY 0
#PLAYLEVEL
#SONGID ""
#WAVE ""
#WAVEOFFSET 0
#JACKET ""
#REQUEST "ticks_per_beat 480"
#00002: 4
#BPM01: 130
#00008: 01
#TIL00: ""
#VOLUME: ""
#HISPEED 00
#MEASUREHS 00
#0261f:11
#0101a:14
#01014:00140000
#01018:0014
#01012:00000014
#0111a:14
#01114:00140000
#01110:41
#01212:14140000
#0121a:00001414
#01412:14
#01418:00140000
#01414:0014
#0141a:00000014
#01512:14
#01518:00140000
#0161a:14140000
#01612:00001414
#01718:16
#01712:00160000
#01710:41
#01812:14
#0181a:00140000
#01918:00001414
#01914:0000000000140000
#02012:14
#0201a:00140000
#0221a:14
#02212:00140000
#02314:00001414
#02318:0000000000140000
#02310:41
#0241a:14
#02412:00140000
#02712:14
#0291a:14
#03418:24140000
#03414:00001414
#0341f:21
#0351a:14
#03516:00140014
#03512:0014
#0361a:14140000
#03612:00001414
#03814:14140000
#03818:00001414
#03718:14
#03714:00140000
#03710:41
#03912:14
#03916:00140014
#0391a:0014
#04012:14140000
#0401a:00001414
#04114:14
#04118:00140000
#0431a:14
#04312:00140000
#04318:00001414
#04314:0000000000140000
#04310:41
#04512:14
#0451a:00140000
#04514:00001414
#04518:0000000000140000
#0471a:14140000
#04712:00001414
#04818:1414
#04814:00140014
#0491a:1414
#04912:00140014
#0501a:14
#00618:16
#00612:0016
#00718:16
#00712:0016
#00818:16
#00812:0016
#03212:14
#03314:14
#01312:24
#01316:00240000
#0131a:0024
#04218:26
#04212:0026
#04412:26
#04418:0026
#04618:26
#04612:0026
#00510:41
#01758:00000016
#02154:00000014
#02558:00000014
#02752:54
#0295a:64
#04258:16
#04452:16
#04658:16
#0505a:54
#03252:54
#03354:54
#0023a0:14
#003380:24
#004320:14
#005340:24
#009380:1636363626000000
#0113a0:00001424
#015320:00001424
#017380:00001626
#018320:0014
#018330:00000000000000000000003400000000
#018340:0000000000000034
#019340:00340000240000000000000000000000
#020340:0014
#020330:00000000000000000000003400000000
#020320:0000000000000034
#021330:00340000000000000000000000000000
#021340:0000343434002400
#0223a0:0014
#022390:00000000000000000000003400000000
#022380:0000000000000034
#023380:00340000240000000000000000000000
#024380:0014
#024390:00000000000000000000003400000000
#0243a0:0000000000000034
#025390:00340000000000000000000000000000
#025380:00000000340000340000000024000000
#026320:1434
#027320:34
#027340:0024
#0283a0:1434
#0293a0:34
#029380:0024
#030320:14
#030340:0024
#031380:14
#0313a0:0024
#032320:14
#033340:34
#033320:00000024
#0373a0:00001424
#041320:00001424
#0503a0:14
#051370:3434342400000000
