This file was generated by Ched 2.7.0.0.
#TITLE ""
#ARTIST ""
#DESIGNER ""
#DIFFICULTY 0
#PLAYLEVEL
#SONGID ""
#WAVE ""
#WAVEOFFSET 0
#JACKET ""
#REQUEST "ticks_per_beat 480"
#00002: 4
#BPM01: 176
#00008: 01
#TIL00: ""
#HISPEED 00
#MEASUREHS 00
#00319:14
#00413:14
#0161a:0014
#0171a:0014
#01814:0014
#01914:0014
#02018:0014
#02118:0014
#02212:0014
#02210:0041
#02312:0014
#0241a:0014
#02514:14
#0251a:0014
#02612:0014
#02718:14
#02712:0014
#0281a:0014
#02914:14
#0291a:0014
#03012:0014
#03010:0041
#03118:14
#03112:0014
#04112:16
#04110:0041
#04212:0016
#04318:16
#04918:16
#05012:0016
#05010:0041
#05112:16
#05218:0016
#05318:16
#05312:0016
#05412:16
#05418:0016
#05512:16
#05518:0026
#06014:0014
#06114:0014
#06118:14
#00714:0014
#04418:0016
#04518:16
#04512:0016
#04612:16
#06218:14
#0321f:0011
#03618:0024
#04018:0026
#0401f:0021
#04818:0026
#00510:41
#01410:41
#000330:14
#002330:24
#005390:14
#006390:0000002400000000
#0083a0:0014
#0093a0:0024
#010340:0014
#011340:0024
#012380:0014
#013380:0024
#014320:0014
#015320:0024
#0323a0:0014
#0333a0:0024
#034320:0014
#035320:0024
#036380:0000000014000034
#037380:0000340000340000
#038380:24
#038340:0014
#039340:0034
#040340:24
#041380:0016
#042380:26
#043320:0016
#044320:26
#046380:0016
#047380:26
#047320:0016
#048320:26
#049380:0016
#050380:26
#051320:0016
#052320:26
#056320:0014
#058320:24
#0583a0:0014
#0603a0:24
#062340:0000000014340000
#063340:3400003400000000
#064340:00240000
