This file was generated by Ched 2.7.0.0.
#TITLE ""
#ARTIST ""
#DESIGNER ""
#DIFFICULTY 0
#PLAYLEVEL
#SONGID ""
#WAVE ""
#WAVEOFFSET 0
#JACKET ""
#REQUEST "ticks_per_beat 480"
#00002: 4
#BPM01: 176
#00008: 01
#TIL00: ""
#HISPEED 00
#MEASUREHS 00
#0321f:0011
#0321b:0000000000000013
#03212:00002424
#03217:23
#0321a:00230000
#03213:00230000
#05715:0000000000000013
#05716:0013000000000000
#05714:13
#05912:0000001300000000
#05918:00001300001300000000000000000013
#05915:1300130000000013
#0591b:13
#05812:00160016000013000000000000001300
#05818:2626260000000000
#0621b:0000001300230000
#06218:00160016000000000000000013001300
#06215:00000000000000000000001300000013
#06212:26002600260000000000000000130000
#06118:000000000000130000000000000013000000000000130000
#06112:000000000000001300000000
#0611b:1300001313000000
#06115:00000000001300001300000000000000
#06114:13
#06116:0013000000000000
#06012:2300130013000013
#06015:000000230000000000130000000013000000000000000000
#0601b:000000130000000000230000000013000000000000000000
#06018:00231300
#05612:0000130000000013
#05618:0000232300000000
#05515:1300001300230000
#05518:00130023
#0551b:0013000023000023
#05512:0000000023000023
#0541b:0000000000000013
#05415:00000013
#05418:0000000000130000
#0541a:00140000
#05412:0014002400000000
#05119:0000000000130000
#05117:1313
#05112:13131300
#05114:0000000000130000
#05116:0013000000001300
#0511b:0013000000001300
#05016:00000013
#05012:0013
#05017:0013
#0501b:0013000000001300
#05015:0000001300000000
#05018:00130000
#05010:0041
#0491b:0013000023000000
#04917:13130023
#04916:0013000023000000
#04912:13000023
#04919:0000000000230000
#04914:0000000000230000
#0481b:00000013
#04816:00000013
#04812:0013
#04817:0023
#04314:0000000000130000
#04316:1313
#0431b:13131300
#04319:0000000000130000
#04317:0013000000001300
#04312:0013000000001300
#0391b:00000013
#03912:00000013
#03918:0013
#03915:0023
#0391a:0000000000330000
#03913:0000000000330000
#03817:13
#03812:2400001313000000
#03815:00000013000000000000000000001300
#0381b:00000013000000001300000000000000
#03818:0000001300000013
#03718:0000000000130000
#03719:00130000
#0371b:0000002300000000
#03714:00240000
#03713:0000000000240000
#0361a:2400000000000013
#0361b:0013
#03615:0000000000000024
#03616:0024
#02712:1300000013000013
#02715:00001300000013000000001300000000
#02718:00130013
#0271b:0013
#0281b:1300000013000013
#02815:00131313
#02818:00001300000013000000001300000000
#02816:13
#02312:00001313
#0231b:00001300000000000000001333000000
#02318:00131300
#02315:1300001300000013
#0221b:00001313
#02215:13000000130000000000001333000000
#02218:0000001300000013
#02212:0013000013000000
#02210:0041
#0211b:00001313
#02112:00001300000000000000001333000000
#02115:00131300
#02118:1300001300000013
#02012:00001313
#02018:13000000130000000000001333000000
#02015:0000001300000013
#0201b:0013000013000000
#01915:0000130013000013
#01918:0013001300001300
#0191b:1313
#02619:0000001300000000
#02617:1313
#02612:2313
#02618:00000000000000000000001300001300
#02615:00000013
#0261b:00130000
#02616:00230000
#02915:00001300000013000000001300000000
#02918:00131313
#02912:1300000013000023
#02917:13
#04217:00000013
#0421b:0013
#04216:0013
#04212:0013000000001300
#04218:0000001300000000
#04215:00130000
#04619:00000013
#04618:13130000
#04615:0013000000000000
#04612:0000002400131300
#0461b:0000000000130000
#04614:00000000000000000000000000000013
#04617:0000000000000013
#0461a:0000002400000000
#04515:13000000130000000000130000000013
#04518:0013000000000013
#0451b:0000000000130000
#04512:0000002400001300
#0451a:0000002400000000
#04418:00001300000000000000130000000013
#04412:0000002400130000
#04415:0000130000000013
#0441b:00000013
#0441a:0000002400000000
#02517:00130000
#02515:13
#0251b:1300000013000013
#02516:00000013
#02519:00001300000000000000001300000000
#02514:0000001300000000
#02512:00130000
#04112:0013000023000000
#04116:13130023
#04117:0013000023000000
#0411b:13000023
#04114:0000000000230000
#04119:0000000000230000
#04110:0041
#02412:2400000013000013
#02417:00000013
#02414:00000000000000000000001300000000
#0241a:24
#0111b:0000001300000000
#01115:00001300001300000000000000000013
#01118:1300130000000013
#01112:13
#01716:1313
#01714:0000000000000013
#01712:00000000130000000000001333000000
#01717:00000000331300000000000013000000
#01719:0013000000000000
#0171b:33
#01816:33130000000000000000000000000000
#01818:00000013
#01815:0000000013000013
#01812:00000013
#01817:00130000
#0181b:13
#0101b:0000001300000013
#01018:00160016000000000000000000000000
#01012:2626260000000000
#01515:0000001300000013
#01518:00000013000000000000130000000000
#01512:0013230000240000
#0151b:23
#0151a:0000002400000024
#06318:00130000
#06315:00000013000000000000000000000000
#0631b:2313000000000000
#06312:00130000000024000000000000002400
#06314:00000024
#06316:0000000000240000
#05316:00140000
#05312:0000002500250025
#05319:0000002500250025
#05212:00140013
#05217:00140013
#0521a:0024
#05215:0024
#04718:0013001300000000
#04715:00130000
#0471b:13
#04712:0000000000000024
#04012:00000013
#04017:00000013
#0401b:0013
#0401f:0021
#04016:0023
#03512:0000000000000013
#03516:0000001300000000
#0351a:24242424
#03412:2400000000000013
#0341a:00002424
#0331b:0000000000000013
#03317:0000001300000000
#03312:24242424
#03116:00130013
#03112:0013
#03119:0000001300000000
#03114:0000001300000000
#0311b:00130000
#03015:00000000000000000000001300000000
#03018:00000013
#03017:00230000
#03016:2323
#03014:0000002300000000
#0301b:2323
#03012:00230000
#03010:0041
#01612:00001313
#01617:00000013
#0161b:00001300000000000000000000000013
#01615:00000013000013000000000000000000
#01618:00130000
#01415:00000000000000002600000000000013
#0141b:0000000000000013
#01418:26002600260000000000001300000000
#01412:00160016000013000000130023000000
#01410:41
#01315:000000000000130000000000000013000000000000130000
#0131b:000000000000001300000000
#01312:1300001313000000
#01318:00000000001300001300000000000000
#01319:13
#01317:0013000000000000
#0121b:2300130013000013
#01218:000000230000000000130000000013000000000000000000
#01212:000000130000000000230000000013000000000000000000
#01215:00231300
#00918:0000000000000013
#00915:00000000000000000000001300000000
#00917:0013000000000000
#00919:13
#0081b:0000130000000013
#00815:0000232300000000
#00718:1300001300230000
#00715:00130023
#00712:0013000023000023
#0071b:0000000023000023
#00612:0000140000000013
#00618:00000013
#00615:0000000000130000
#0061a:0014002400000000
#0051a:00000014
#00510:41
#06412:00230000
#0641b:00230000
#00212:26
#00113:00000000000000000035353535353535
#00118:00343434343434340000000000000000
#00018:00323232323232320000000000000000
#00015:00000000000000000033333333333333
#0615b:00000000000000005300004300000000
#06155:00000000000000005300004300000000
#06158:000000000000002300000000
#06152:000000000000002300000000
#06052:00000000000000006300003300000000
#06058:00000000000000006300003300000000
#06055:000000000000002300000000
#0605b:000000000000002300000000
#05952:00000000000000000000001300000000
#05957:00000000000000000000001300000000
#0585b:00000000000000000000001300000000
#05856:00000000000000000000001300000000
#05755:00000000000000000000001300000000
#05652:00000000000000000000001300000000
#05658:0000006300000000
#04058:13
#04055:13
#04056:0013
#04057:00000053
#0405b:0053
#05356:13
#0535b:13
#04856:00140063
#04857:0013
#04852:0063
#0475b:0000000000000013
#04755:0000000000130000
#04758:0000001300000000
#03656:00130000
#03457:00130000
#01352:00000000000000006300003300000000
#01358:00000000000000006300003300000000
#01355:000000000000002300000000
#0135b:000000000000002300000000
#0125b:00000000000000005300004300000000
#01255:00000000000000005300004300000000
#01258:000000000000002300000000
#01252:000000000000002300000000
#0115b:00000000000000000000001300000000
#01156:00000000000000000000001300000000
#01052:00000000000000000000001300000000
#01057:00000000000000000000001300000000
#00958:00000000000000000000001300000000
#0085b:00000000000000000000001300000000
#00855:0000005300000000
#00557:17
#00452:17
#00357:17
#06252:00660000
#05452:0000001400000000
#04957:00000063
#04952:63000063
#04956:0023000000000000
#03955:0063
#0395b:00000023
#03952:00000023
#03958:0053
#01458:00560000
#01455:0016
#03257:13
#0325a:00130000
#03253:00130000
#06452:00130000
#0645b:00130000
#0525a:0014
#05255:0014
#05252:00640063
#05257:00640063
#04652:0000003400000000
#04658:00130000
#04655:0013000000000000
#0455a:0000004400000000
#04555:00130000
#04558:0013000000000000
#04452:0000003400000000
#04156:00000053
#0415b:53000053
#04157:0023000000000000
#0305b:0013
#0065a:0000001400000000
#00252:16
#05156:00000053
#0515b:0023000000005300
#05157:63
#05052:0013
#05057:0063
#0505b:00000063
#04357:00000063
#04352:0023000000006300
#04356:53
#02752:0000000000000063
#0275b:0013
#0285b:0000000000000053
#02855:0013
#02856:23
#0235b:00000000000000000000002300000000
#02358:0053
#02255:00000000000000000000002300000000
#02252:0053
#02152:00000000000000000000002300000000
#02155:0063
#02058:00000000000000000000002300000000
#0205b:0063
#01955:0053
#02652:0013
#02658:0000000000000053
#02958:0013
#02957:23
#0425b:0013
#04256:0053
#04252:00000053
#03852:0063
#03855:0000000000000023
#0385b:0053
#03858:0000000000000023
#02452:0013
#01756:0063
#01754:0000000000000063
#01752:00000000000000000000002300000000
#01757:00000000002300000000000000000000
#01759:0053000000000000
#01856:00230000000000000000000000000000
#0255b:0013
#01657:00000053
#0165b:00000000000000000000000000000023
#01652:0013
#000380:12323232323232322300000000000000
#000351:00000000000000001333333333333333
#001341:24
#001380:14343434343434342500000000000000
#001331:00000000000000001535353535353535
#002321:26
#0023b0:13
#003370:27
#003321:13
#004321:27
#0043b0:13
#005370:27
#005321:13000026
#005351:0000000000000014
#005341:000000000000000000000034
#005331:000000000000000000000000000000000000000000000034
#006321:24
#008351:0000001300000000
#009321:0023
#008380:0013
#0083b0:00000000000000000000002300000000
#009370:00130000
#009390:00000000003300000000000000000000
#0093b0:0000002300000000
#0093b0:0013
#009380:00000000000000000000002300000000
#010360:0013
#010320:00000000000000000000002300000000
#0103b1:0013
#010371:00000000000000000000002300000000
#011371:0013
#0113b1:00000000000000000000002300000000
#011320:0013
#011360:00000000000000000000002300000000
#0123b0:00000000000000001300002300000000
#012380:000000000000005300000000
#012351:00000000000000001300002300000000
#012321:000000000000005300000000
#013321:00000000000000001300002300000000
#013351:000000000000005300000000
#013380:00000000000000001300002300000000
#0133b0:000000000000005300000000
#014380:00160000
#014350:0000002600000000
#016370:00000013
#0163b0:00000000000000000000000000000053
#0173b0:3323
#017390:0053000000000000
#017370:00000000335300000000000000000000
#017361:0013
#017321:00000000000000000000005333000000
#017341:0000000000000053
#018361:33530000000000000000000000000000
#018321:00230000
#019351:0013
#019321:00000023
#0203b1:0000000013000023
#020381:00000000000000000000003333000000
#021351:0000000013000023
#021321:00000000000000000000003333000000
#022321:0000000013000023
#022351:00000000000000000000003333000000
#023381:0000000013000023
#0233b1:00000000000000000000003333000000
#024371:00000000000000001300002300000000
#025361:00000000000000001300002300000000
#026381:0000000000000013
#0273b1:0023000000000000
#027321:0000000000000013
#028361:53
#028321:0023000000000000
#0283b1:0000000000000013
#029371:53
#0293b1:0023000000000000
#030371:0000000000000013
#031391:33
#0313b1:0023000000000000
#030320:0000000000000013
#031340:33
#031360:0023000000000000
#031370:0013
#031380:00000000000000000033000000000033
#031390:0000000000330033
#0313a0:00000000000000000000003300330000
#0313b0:00000033
#032370:23
#032370:0013
#0323b0:00000023
#0333b0:13
#033370:00230000
#033370:0013
#0333b0:00000023
#034320:14240000
#0343b1:13
#034371:00230000
#034361:0013
#034321:00000023
#035321:13
#035361:00230000
#035361:0013
#035321:00000023
#0363a1:14240000
#036320:13
#036360:00230000
#038320:0013
#038350:0000000000000053
#039320:00230000
#0383b1:0013
#038381:0000000000000053
#0393b1:00230000
#039381:0013
#0393a1:0000000000330000
#0393b1:00000033
#040381:23
#039350:0013
#039330:0000000000330000
#039320:00000033
#040350:23
#0403b0:0000000013000053
#040370:0000000000533300
#0413b0:33230000
#041370:0033000000000000
#0413b0:00000013
#042370:23
#041361:00000013
#042321:23
#042361:0000000013000053
#042321:0000000000533300
#043361:33230000
#043321:0033000000000000
#043321:00000013
#044361:23
#043370:00000013
#0443b0:23
#047320:0000001300000000
#047350:00000000000000530000230000000000
#047381:0000000000130000
#0473b1:00000000000000000000005300002300
#047320:0000000000000014
#047360:0000000000000000000000000000000000000000000000000000000000005454
#047350:00000000000000000000000000000000000000000000000000000000000000000000000000000000000000000000000000000000000000000000000000540054
#048360:5454545454545454240000000000000000000000000000000000000000000000
#048350:00540054005400540054005400540054000000000000000000000000000000000000000000000000000000000000000000000000000000000000000000000000
#048320:0000000013000053
#048360:0000000000533300
#049320:33230000
#049360:0033000000000000
#049320:00000013
#050360:23
#049371:00000013
#0503b1:23
#050371:0000000013000053
#0503b1:0000000000533300
#051371:33230000
#0513b1:0033000000000000
#0513b1:00000013
#052371:23
#051360:00000013
#052320:23
#052320:00140000
#052350:0000005424000000
#052371:00140000
#0523a1:0000005424000000
#052321:00000013
#052361:0000000000000053
#053361:23
#052370:00000013
#0523b0:0000000000000053
#0533b0:23
#056380:0000001300000000
#0573b0:0000000000000023
#056351:0013
#056321:00000000000000000000002300000000
#057361:00130000
#057341:00000000003300000000000000000000
#057321:0000002300000000
#057321:0013
#057351:00000000000000000000002300000000
#058370:0013
#0583b0:00000000000000000000002300000000
#058321:0013
#058361:00000000000000000000002300000000
#059361:0013
#059321:00000000000000000000002300000000
#0593b0:0013
#059370:00000000000000000000002300000000
#060320:00000000000000001300002300000000
#060350:000000000000005300000000
#060381:00000000000000001300002300000000
#0603b1:000000000000005300000000
#0613b1:00000000000000001300002300000000
#061381:000000000000005300000000
#061350:00000000000000001300002300000000
#061320:000000000000005300000000
#062320:00160000
#062350:0000002600000000
#0633b0:000000000000000000000000000000000000135353535353535353535353535353535353535353535353230000000000
#0633a0:000000000000000000000000000000000000000000000000000000000000000000000000005300530053005300530053005300530053005300530053005300530053005300530053005300530053005300530053000000000000000000000000
#064350:0013000000000000
#064340:003300000000
#064330:000000000033000000000000000000000000000000000000
#064320:00230000
#064381:0013000000000000
#064391:003300000000
#0643a1:000000000033000000000000000000000000000000000000
#0643b1:00230000
