This file was generated by Ched 2.7.0.0.
#TITLE ""
#ARTIST ""
#DESIGNER ""
#DIFFICULTY 0
#PLAYLEVEL
#SONGID ""
#WAVE ""
#WAVEOFFSET 0
#JACKET ""
#REQUEST "ticks_per_beat 480"
#00002: 4
#BPM01: 176
#00008: 01
#TIL00: ""
#HISPEED 00
#MEASUREHS 00
#0061b:0013001300000000
#00615:0000130000000013
#00618:00000000000000000013000000000000
#00712:0013000000000023
#00718:13130023
#00715:0000001300230000
#0071b:0000000023000023
#01615:0013000000001300
#01612:0000001300000000
#0161b:0013
#01618:00130000
#0191b:13
#01915:0013000000000013
#01918:00130000
#01912:0000001300000000
#01815:0000000000000013
#01818:00000013
#01812:13
#02012:0013000013000000
#02015:00130000
#02018:0000001300000013
#0201b:13
#0211b:0013000013000000
#02118:00130000
#02115:0000001300000000
#02112:1300000000000013
#02415:0000000000000013
#02412:24
#0241a:24
#02512:0013000000000000
#02515:0000001300000013
#0251b:13
#02518:00130000
#03118:00130000
#03115:0000001300000000
#03215:0000000000000013
#0321f:0011
#03212:00240000
#03216:24
#0321a:00240000
#03318:0000001300000000
#03315:0000000000000013
#04212:0013001300000000
#04218:00131300
#0421b:00000013
#04418:0013000000001300
#04415:0000130000130000
#04412:0000000000000013
#0441a:0000002400000000
#04515:00000013
#04518:0000000000130000
#0451b:0000000000000013
#04512:0000002400000000
#04615:0000000000000013
#04618:00130013
#04612:13
#04715:0013000000000000
#0471b:13
#04718:00130000
#04712:0000001400000024
#0471a:0000000000140000
#05212:00140000
#05218:00000013
#05215:0024
#05314:0000140000240000
#0531a:0000000000140000
#05312:0000000000000014
#05318:0000002400000024
#06215:23000013
#06212:0000000000000013
#06218:0000000000230000
#06318:0013002600000000
#06315:00130000
#06312:0000000000240000
#06316:00000024
#0631a:0000000000000024
#0631b:23
#03817:0000000000000014
#0381a:2414
#03816:00000014000000000000000000000000
#03812:0000001400000000
#02615:0013
#02618:0000001300000013
#0261b:23
#02612:00230000
#03912:00000013
#0391b:00000013
#03918:0013
#03915:0023
#03913:0000000000330000
#0391a:0000000000330000
#00318:16
#00412:16
#00518:16
#00510:41
#01712:13
#0171b:0013
#04318:13
#04315:00001313
#0431b:0000000000130000
#04112:13
#0411b:00002323
#04115:0000000000230000
#04110:0041
#04015:00000013
#04012:0013
#0401f:0021
#05412:0013001300000000
#05418:0000130000000013
#05415:00000000000000000013000000000000
#0551b:0013000000000023
#05515:13130023
#05518:0000001300230000
#05512:0000000023000023
#01418:2300000000000013
#01415:00000023
#01410:41
#01518:0013002600000026
#01512:0000000000260000
#01515:23230000
#02915:00003313000000000000000000000000
#02918:0000000000000023
#02913:0000003300000000
#02914:00330000
#02812:0000000000000013
#02818:00003313000000000000000000000000
#0281a:0000003300000000
#02819:00330000
#0501b:0013001300000000
#05015:00131300
#05012:00000013
#05010:0041
#05115:13
#05118:00001313
#05112:0000000000130000
#0491b:13
#04912:00002323
#04918:0000000000230000
#04818:00000013
#0481b:0013
#03412:0000000000000013
#0351b:0000001300000000
#03512:0000000000000013
#02218:1300001300000000
#0221b:0000130000000013
#02215:0013000013000000
#02210:0041
#02318:0013000013000000
#02312:00130000
#02315:1300001300000000
#05715:00000013000000000000000000000000
#0571b:00000013000000000000000000000000
#00912:00130000000000000000000000000000
#00918:00130000000000000000000000000000
#02715:00130000
#02718:0000001300000000
#02712:0013
#0271b:0000000000000013
#01115:13
#0111b:0013000000000000
#01112:00130000
#01118:0000001300000013
#01318:13
#01312:0013000000000000
#01315:0000001300000013
#0131b:00130000
#01015:0000001300000000
#01018:23
#05815:00130000
#05818:0000001300000000
#05918:13
#05912:0013000000000000
#0591b:00130000
#05915:0000001300000013
#06115:13
#0611b:0013000000000000
#06118:0000001300000013
#06112:00130000
#00212:26
#03012:23
#03018:0023
#03015:0000002300000000
#0301b:00230000
#03010:0041
#03717:0000000000240000
#03718:00240000
#03714:0000002400000000
#06412:00240000
#06413:00000034000000000000000000000000
#0361a:0024
#03619:0000000000000024
#0081b:0000232300000000
#00815:0000232300000000
#05612:0000232300000000
#05618:0000232300000000
#01215:00230000
#0121b:0023000000000000
#01212:23
#01218:0000002300000000
#06018:00230000
#06012:0023000000000000
#0601b:23
#06015:0000002300000000
#00114:00343434343434343434343434343434
#00018:00333333333333333333333333333333
#00252:16
#0165b:0013
#01655:00000063
#02052:0053
#03058:0013
#03452:00130000
#04752:0000001400000064
#0475a:0000000000140000
#05252:00640000
#05258:00000063
#05255:0014
#0535b:13
#06452:00140000
#0415b:00000053
#04152:63
#03857:0000000000000024
#0385a:0054
#02655:0013
#02658:0000000000000063
#03952:00000023
#03955:0063
#0395b:00000023
#03958:0053
#0085b:0000005300000000
#00855:0000005300000000
#00358:16
#00452:16
#00558:16
#00658:00000000000000000023000000000000
#0065b:0000005300000000
#01752:63
#0175b:0063
#0215b:0063
#04358:63
#04355:00000053
#0425b:00000063
#04258:0063
#04856:00140000
#04858:00000053
#0485b:0053
#04055:00000063
#04052:0063
#05452:0000006300000000
#05455:00000000000000000023000000000000
#05652:0000006300000000
#05658:0000006300000000
#01852:53
#02955:00000023000000000000000000000000
#02952:0013
#02852:0000000000000053
#02858:00000023000000000000000000000000
#0285b:0013
#05155:53
#05158:00000063
#05052:00000053
#05055:0053
#0495b:53
#04952:00000063
#03655:00130000
#02255:0063
#02358:0053
#05755:00000023000000000000000000000000
#0575b:00000023000000000000000000000000
#00952:00230000000000000000000000000000
#00958:00230000000000000000000000000000
#02752:0013
#0275b:0000000000000063
#04552:0000001400000000
#0445a:0000001400000000
#01458:0013
#000380:13333333333333333333333333333333
#001380:25
#001341:14343434343434343434343434343434
#002321:26
#0063b1:0000001300002300
#006381:00000000000000000053000000000000
#0083b1:0000001300000000
#009381:00530000000000000000000000000000
#0093b1:00000023
#008350:0000001300000000
#009320:00530000000000000000000000000000
#009350:00000023
#010380:1333230000000000
#010390:00330033000000000000000000000000
#0103b0:0000000013000023
#010380:00000000000000000000003300000000
#011350:00000000000000001300002300000000
#012320:0000000013000023
#012350:00000000000000000000003300000000
#013380:00000000000000001300002300000000
#014380:1333333323000000
#014390:00330033000000000000000000000000
#016350:00000013
#017320:33
#017350:00230000
#0173b0:0013
#017380:00000023
#018320:13
#018350:00230000
#0193b0:00001323
#020320:0013
#020350:00000023
#0213b0:0013
#021380:00000023
#022350:0013
#022320:00000023
#023380:0013
#0233b0:00000023
#024380:0013
#0243b0:00000023
#025380:0013
#0253b0:00000023
#026380:0000000000000013
#0273b0:0023000000000000
#0273b0:0000000000000013
#028380:00003353000000000000000000000000
#028390:00330000
#0283a0:0000003300000000
#0283b0:0023
#028320:0000000000000013
#029350:00003353000000000000000000000000
#029340:00330000
#029330:0000003300000000
#029320:0023
#030320:0000000000000013
#031350:0023000000000000
#031380:0013
#0313b0:00000023
#032380:0013
#0323b0:00000023
#033350:13
#033320:00230000
#033380:0013
#0333b0:00000023
#034350:13
#034320:00230000
#0343b0:0013
#034380:00000023
#035320:13
#035350:00230000
#0353b0:0013
#035380:00000023
#036320:13
#036350:00230000
#0383a0:0014
#038370:0000000000000054
#0393a0:00240000
#039350:0013
#039330:0000000000330000
#039320:00000033
#040350:23
#039381:0013
#0393a1:0000000000330000
#0393b1:00000033
#040381:23
#040321:0013
#040351:00000033
#041321:33
#041351:00230000
#0413b1:00000013
#042381:23
#042381:0013
#0423b1:00000033
#043381:33
#0433b1:00230000
#043351:00000013
#044321:23
#0453b1:13
#045381:00230000
#046351:0000001300230000
#047321:0000000000000014
#048361:00540000240000000000000000000000
#0483b1:0013
#048381:00000033
#0493b1:33
#049381:00230000
#049321:00000013
#050351:23
#050351:0013
#050321:00000033
#051351:33
#051321:00230000
#051381:00000013
#0523b1:23
#052321:00140000
#052351:0024
#052381:00000013
#0533b1:23
#054321:0000001300002300
#054351:00000000000000000053000000000000
#056321:0000001300000000
#057351:00000053000000000000000000000000
#058321:23
#056380:0000001300000000
#0573b0:00000053000000000000000000000000
#058380:23
#058320:0000000013000023
#058350:00000000000000000000003300000000
#059380:00000000000000001300002300000000
#0603b0:0000000013000023
#060380:00000000000000000000003300000000
#061350:00000000000000001300002300000000
#062350:1333332300000000
#062340:00330033000000000000000000000000
#064350:0014000000000000
#064330:00000034000000000000000000000000
#064320:00240000
