This file was generated by Ched 2.7.0.0.
#TITLE ""
#ARTIST ""
#DESIGNER ""
#DIFFICULTY 0
#PLAYLEVEL
#SONGID ""
#WAVE ""
#WAVEOFFSET 0
#JACKET ""
#REQUEST "ticks_per_beat 480"
#00002: 4
#BPM01: 176
#00008: 01
#TIL00: ""
#HISPEED 00
#MEASUREHS 00
#00512:00001714
#0051b:1300000000000013
#00515:000000000000000000000013
#00518:000000000000000000000000000000000000000000000013
#00510:41
#00612:1318000000001400
#00619:00130000
#00616:0000002300140014
#0061a:00000014
#00614:00130000
#0061b:0000002300000000
#00718:000000000000000000130013000000000000000000000000
#0071b:1300130000000023
#00712:1300000000002626
#00714:0013000000000000
#00715:000000000013230000000000
#00716:00130000
#00717:0000000000230000
#00719:00000023
#00817:00000000000000000000001300001300
#00812:001c260013000013
#00818:00260000
#00919:13
#0091b:0013000000000013
#00917:00000000000000000000001300000000
#00912:00000000001300001300000000001300
#00914:13
#00916:0013000000000000
#00918:00130000
#00915:0000001300000000
#01012:001c001c000013000000000000000000
#01017:0000001300000000
#01016:00002400000000000000001300001300
#0101b:0000000013000013
#01014:24
#01018:00240000
#01115:0000130000000013
#01118:00000000000013000000000000000013
#01114:13
#01112:0013000000000000
#01116:00000000000000000000001300000000
#01119:13
#01117:0013000000000000
#0111b:00000000001300001300000000000000
#01216:0013
#0121b:2313
#01212:190000170000150000130000000013000000000000130000
#01217:000000000000230000000000000013000000000000130000
#01219:0023000000000000
#01215:0000002300000000
#01314:13
#01318:00130000
#0131b:000000130000000000000000000013000000000000130000
#01319:13
#01312:00000000001300001300000000001300
#01315:0000001300000000
#01316:000000130000000000000000000013000000000000000000
#01317:0013
#0141b:0000001300130000
#01415:000000000000000000000000000000000000000000000000000000000000000000130000260000000000130000001300
#01418:240000000000000000000013
#01416:0024001313000000
#01412:001c001c000000002300000000000000
#01414:00240000
#01410:41
#01512:0013002200000000
#01518:00000013000000000000000000001600
#01514:0000001400000024
#01516:0000000000150000
#01515:26260000
#01513:0000000000230000
#0161b:0013000013000000
#01616:00000014000014001400000000001200
#01612:0000131300001200
#02416:00000000000000000000001300000000
#0241b:00000013
#02412:2400000013000013
#02417:0000000000000013
#0241a:24
#02516:1300000000000018
#02519:0013001300000000
#02512:00130013
#02514:0013001300000000
#02517:00000000130000000000001300000000
#0251b:1313
#02616:2300001813000000
#02612:00001800230000000000001300001300
#02617:0000230000001313
#0261b:2313
#02717:0000000000000013
#0271b:00000000130013001300001300000000
#02712:0000130000000013
#02718:00000013000000000000000000000000
#02715:0013000000000000
#02716:0000001300001300
#03116:00000000000000000014001414001400
#0311c:0012
#0311a:0000000000120000
#03114:00000000000000000000000000120000
#03112:00000000130013000000000000000012
#03115:00000013000000000000000000000000
#03118:0013000000000000
#03117:0000001300000000
#0311b:00130000
#0391b:0000130013000013
#03919:0000000000130000
#03918:00000013
#03912:00141800001300002300000000001300
#03916:00000000000014140000000000000000
#03914:0000000000230000
#03915:00000023
#0411b:13
#04117:0000130000000013
#04116:0013000024000000
#04112:0013003300002300
#04119:0000001300000000
#0411a:00000024
#04118:0000000000240000
#04115:00000000000000000000002300000000
#04110:0041
#04416:0013000000001300
#04418:00000013000000000000000000000000
#0441b:0000002300001300
#04417:0000000000130013
#04412:14000000000029000000130000000013
#04413:00130000
#0441a:00130000
#04612:0000002900000014
#04616:13000000170000000000001400000014
#0461a:0000000000141400
#04614:0015000000000000
#04613:00130000
#04619:0013000000000000
#0461b:0000002300000000
#0471a:0014141200000000
#04712:14
#04716:00000014000000000000000000000000
#04717:0000001200120023
#05216:0000000000000000140034000000003424000000000000001300330000000033
#05212:13140000
#05214:0000000000000000003400001400000000000000000000000000003300330000
#05219:0000001400000000
#0521a:00002413
#05218:0000000000000000000000340034000000000000000000000033000013000000
#05213:0000000000000013
#05217:00000000000000340000000000000000
#05215:00000000000000000000000000000033
#02815:0000001300000000
#02814:0013000000000000
#02819:0013000000000000
#02812:00000000130000001300001300000000
#02818:00000000000000130000000000000000
#02816:1300000000000013
#02817:00130013
#0281b:1300000000000013
#00212:13
#00218:2616
#0031b:13
#00312:0017
#00412:13
#00417:0017
#03816:12000000000014000018000000000018
#03812:00000000000012000000001418000000
#03818:00000014000000000000000000000000
#0381a:2400000014000014
#03814:00000012000000000000000000000000
#04217:1300150000130000
#04212:00000000000000131300000000001300
#04215:0000001516000000
#04216:00000013000000000000000013000000
#04219:0015000000000000
#0421b:0000000000130013
#04214:00000000001300000000000000000000
#04517:1315000000001300
#04513:00170000
#0451a:00130000
#04514:0013000000000000
#04512:0000002300001300
#04516:0000000000130013
#0451b:00000000000000000000130000000013
#04515:0000002900000000
#05616:0000000000000013
#05612:001c260000000000
#0561b:0000000013000013
#05615:00000000000000000000001600000000
#05617:0013
#05618:00260000
#05714:13
#05712:0013161600000000
#05715:00000000000000000000001600000000
#0571b:0000130013000013
#05719:15
#05717:0017000013000000
#05718:00000000001300000000000000000000
#05716:0000000000000013
#05816:00140014000013001300000000000000
#0581b:0000001300000000
#05817:0000000000000013
#05812:2c2c240013000013
#05815:00000000000000000000001600000000
#0581a:00240000
#05918:0000161600000013
#05915:00000000001300000000001600000013
#05919:13
#0591b:0013000000000000
#05912:1517130013000000
#05916:0013
#06017:0017000013000000
#0601b:000000000000000000130000000013000000000000130000
#06016:000000000000230000000000000013000000000000130000
#06012:2313
#06015:19
#06019:00150000
#06014:0023000000000000
#06018:0000002300000000
#06119:15
#06112:000000130000160000160000000013000000000000130000
#06114:13
#06118:00000000001300000000000000000000
#0611b:00131300
#06117:000000170000000000000000000013000000000000130000
#06116:0013
#06312:00000000130028000000241800002400
#0631a:0000000000000014
#06317:00160000000000000000000000000000
#06319:0013000000000000
#06315:00000016000000000000000000000000
#0631b:23130000
#06316:00000024
#06412:0016000000000000
#06414:001600000000
#06416:000000000016000000000000000000000000000000000000
#06418:00260000
#04316:0000130014000013
#04312:13000014
#04317:0013000000000000
#0431b:0013003300001300
#04318:00000000000000000000001300000000
#04314:0000001300140000
#0361b:0013
#03612:1200000000000013
#03615:0000000026000026
#03617:22
#0371b:00130000
#03712:0000001300000000
#03719:0000000000130000
#03717:00240000
#03715:0000002400240000
#0291b:00000000130000001300001300000000
#02916:00130013
#02918:0000001300000000
#02919:0013000000000000
#02914:0013000000000000
#02915:00000000000000130000000000000000
#02912:1300000000000028
#02917:13
#01718:1200000000120012
#0171c:0012000012001200
#01712:1200120000000012
#01716:0012001200001200
#01916:1212
#0191c:12
#0191a:0012000000000000
#01918:00121200
#01914:0000001200000012
#01912:00120000
#01818:0012000000001200
#01814:0000000000000012
#01812:00120012
#0181c:12
#02018:1212
#02012:12
#02014:0012001200000000
#02016:00120000
#0201c:00120000
#0201a:0000001200000012
#02116:1212
#0211c:12
#0211a:0012001200000000
#02118:00120000
#02112:00120000
#02114:0000001200000012
#02218:1212
#02212:1212
#02214:0012001200000000
#02216:00120000
#0221c:00120000
#0221a:0000001200000012
#02210:0041
#02316:1212
#0231c:1212
#0231a:0012001200000000
#02318:00120000
#02312:00120000
#02314:0000001200000000
#0401b:0000000013000013
#04016:0000000000130000
#04017:00000013
#04012:0000000000130013
#04015:0026
#0401f:0021
#04812:00001313
#04817:0000000000131313
#0481b:0000000000130013
#04815:0026
#0481a:00230000
#04912:1300001300230013
#0491b:0013000000002300
#04916:00130000
#04917:1313000023272300
#0511b:1300001300130013
#05112:0013000000171400
#05116:1313000013001300
#05117:00130000
#05015:0016
#0501b:13000000000000131300000013000000
#05016:0000001500131313
#05012:0015000000130013
#05014:00150000
#05017:00000013000000000000000000000000
#05019:00000000001300000000000000000000
#05010:0041
#0301b:00000000230000000000001300001300
#03016:0028230000001313
#03012:2300002823000000
#03017:2323
#03010:0041
#05416:0018000000140014
#05414:00130000
#05412:0000002300001400
#05419:00130000
#0541a:00000014
#05417:0000002300000000
#05515:000000000000000000130013000000000000000000000000
#05512:1300130000000023
#0551b:13
#05519:0013000000000000
#05518:000000000000000000001300230000000000260000260000
#05517:00130000
#05516:0000000000230000
#05514:00000023
#06217:00000000000013000000001600001300
#06212:2c2c241300000000
#06216:00140014000000000000000000000000
#06219:00000013
#06215:00000000000000000000000000160000
#06213:00000000000000000000000000000016
#0621a:00240000
#0621b:0000000000230000
#00018:1212121213131313
#00016:00120012001200120000000000000000
#00015:00000000000000000013001300130013
#00114:00140014001400140000000000000000
#00118:1414141415151616
#00113:00000000000000000015001500000000
#00112:00000000000000000000000000160016
#05312:0000132400000024
#05315:001300000000
#0531b:0013000000000000
#05318:000000000013000000000000000000000000000000000000
#05317:0000002200220022
#0531a:0000000000240000
#0341c:12
#03416:0000000000130000
#03412:0000000013000017
#03417:22002222
#03317:2200221722132217
#0331b:0013
#03316:0013000000000000
#03312:13
#03217:0000000022132217
#0321b:0013
#0321f:0011
#03218:00260000
#03214:28
#03212:00260000
#03516:0000000000130000
#03512:0000001713000017
#03517:2213220022002200
#0351b:13
#0065b:0000001300000000
#00656:0000001300000000
#00652:00000034
#0065a:00000044
#01256:00000000000000005300004300000000
#0125b:00000000000000005300004300000000
#01257:000000000000002300000000
#01252:390000370000350000330000000023000000000000000000
#01452:0013
#03952:0000000000000023
#0395b:0000000000000023
#03958:00000053
#03955:00000063
#04753:0000000000120000
#04752:64
#04757:0000006200520063
#0475b:0000000000000012
#0475a:0000001200000000
#05256:00641453
#05252:00640000
#05254:0000002400000000
#05259:0000002400000000
#0525a:00001453
#05258:0000000000000023
#05253:0000000000000023
#04555:0000004900000000
#04557:0045000000000000
#04553:00370000
#04452:0000003900000000
#04152:00000063
#04157:0000530000000023
#0415a:00000044
#0415b:53
#04156:0023000000000000
#02657:0000000000000053
#02656:0013
#0265b:0013
#00258:1626
#00252:63
#0035b:53
#00352:3927
#00452:63
#00457:0027
#00455:49
#0055b:53
#00552:3927
#01357:00000000000000006300003300000000
#01352:00000000000000006300003300000000
#0135b:000000000000002300000000
#01356:000000000000002300000000
#03254:18
#03252:00360000
#03258:00460000
#03257:0000000000230000
#0325b:0053
#06057:00004700000000006300003300000000
#0605b:000000000000000000430000000023000000000000000000
#06052:00000000000000006300003300000000
#06056:000000000000002300000000
#06059:00450000
#06055:49
#06458:00460000
#03052:0013
#03057:0013
#03056:0000000000000063
#04356:0000630000000023
#04352:63000034
#04357:0023000000000000
#0435b:00000053
#05652:00360000
#05658:00460000
#05655:00000000000000000000001600000000
#05657:0053
#00858:00460000
#00852:00360000
#0085b:00000000000000000000001300000000
#00857:00000000000000000000001300000000
#02452:0033
#0255b:0043
#0165b:0043
#01656:0000000000000022
#01652:00000062
#01758:6200000000220022
#0175c:0022000052005200
#01752:6200620000000022
#01756:0022002200005200
#02356:0052
#0235c:0052
#02156:0052
#02058:0062
#02252:0062
#02258:0062
#02852:0033
#0295b:0043
#0405b:0053
#04057:00000053
#04052:0000000000000023
#04056:0000000000230000
#04058:13
#04055:1336
#04252:0063
#04257:0000000000230000
#04256:00000063
#0425b:0000000000000023
#04255:0046
#04652:0000003900000000
#0465a:00000054
#04654:0035000000000000
#04656:00470000
#01852:00520000
#0185c:52
#01858:0022000000000000
#04852:00006363
#04857:0000000000230023
#0485a:00130000
#04855:0046
#04853:00130000
#04952:6300000000000023
#04956:00630000
#04957:0023000000005300
#0495b:00000043
#0515b:5300000000000023
#05152:00000034
#05156:0023000000006300
#05157:00530000
#05755:00000000000000000000001600000000
#05757:0053
#0275b:0043
#05452:0000001300003400
#0545a:00000044
#05457:0000001300000000
#05055:0036
#0505b:00005353
#05056:0000000000230023
#01052:00000000000000000000001300000000
#01056:00000000000000000000001300000000
#01152:00000000000000000000001300000000
#01156:00000000000000000000001300000000
#0095b:00000000000000000000001300000000
#00957:00000000000000000000001300000000
#05955:00000000000000000000001600000000
#05956:0063
#05855:00000000000000000000001600000000
#05856:0063
#06156:00000000000000005300004300000000
#06152:000000000000002300000000
#0615b:00000000000000005300004300000000
#06157:000000000000002300000000
#05356:13
#05352:13
#01958:0022
#01956:0022
#03452:00126300
#03457:52120000
#0345c:52
#03456:0000000000230000
#03357:0000000000230000
#0335b:0053
#03356:0023000000000000
#03352:63
#03652:62
#03657:62120000
#0365c:00120000
#03556:0000000000230000
#03552:0063
#03557:0023000000000000
#0355b:53
#002320:13
#002380:0056
#003320:29
#0033b1:13
#003321:0057
#004351:29
#004320:13
#004370:0057
#005320:29
#0053b1:13
#005321:0057
#005361:00000028
#008361:0013
#0083b1:00000000000000000000002300000000
#009361:0013
#0093b1:00000000000000000000002300000000
#010371:0013
#010321:00000000000000000000002300000000
#011371:0013
#011321:00000000000000000000002300000000
#012361:00000000000000001300002300000000
#012321:000000000000005300000000
#0123b0:00000000000000001300002300000000
#012370:000000000000005300000000
#013370:00000000000000001300002300000000
#0133b0:000000000000005300000000
#013321:00000000000000001300002300000000
#013361:000000000000005300000000
#016321:00000012
#016361:0000000000000052
#017321:32322200
#017361:0052005200000000
#017380:12220000
#0173c0:0052000000000000
#0173c0:00001232
#017380:0000000000520052
#0183c0:32220000
#018380:0052000000000000
#017361:00000012
#017321:0000000000000052
#018361:22
#018321:00120000
#018361:0022
#019361:0012
#019321:00000022
#019380:0012
#0193c0:00000022
#020380:0012
#0203c0:00000022
#020321:00001222
#021361:0012
#021321:00000022
#0213c0:00001222
#022380:0012
#0223c0:00000022
#022321:0012
#022361:00000022
#023361:0012
#023321:00000022
#0233c0:0012
#023380:00000022
#024370:0013
#0243b0:00000000000000000000002300000000
#025360:0013
#025320:00000000000000000000002300000000
#026370:0000000000000013
#0263b0:00000000000000000000000000000053
#0273b0:0023000000000000
#027320:0013
#027360:00000000000000000000002300000000
#0283b0:0013
#028370:00000000000000000000002300000000
#029320:0013
#029360:00000000000000000000002300000000
#030360:0000000000000013
#031320:3323000000000000
#0323b0:00001323
#032370:0000000000330000
#033320:13230000
#033360:0033000000000000
#0333b0:00001323
#033370:0000000000330000
#034370:12
#034320:00220000
#0343c1:12
#034371:00220000
#034321:00001323
#034361:0000000000330000
#0353b1:13230000
#035371:0033000000000000
#035321:00001323
#035361:0000000000330000
#036371:12
#0363c1:00220000
#036320:12
#036370:00220000
#039350:00000013
#039320:0000000000000053
#040350:23
#039381:00000013
#0393b1:0000000000000053
#040381:23
#0403b1:00001323
#040361:0000000000330000
#040370:00000013
#040320:0000000000000033
#041370:23
#0413b1:13230000
#041361:0033000000000000
#041370:00130000
#041320:0000003323000000
#041320:00000013
#041370:0000000000000053
#042320:23
#042320:00001323
#042370:0000000000330000
#042361:00000013
#0423b1:0000000000000033
#043361:23
#043320:13230000
#043370:0033000000000000
#043361:00130000
#0433b1:0000003323000000
#0433b1:00000013
#043361:0000000000000053
#0443b1:23
#0463a1:00000014
#046361:0000000000000024
#047321:14
#047361:0024000000000000
#047371:0000001200000000
#047331:00000000000000000052220000000000
#047321:000000000000000000000000000000000000000000000000000000000000000000000000000000000000000000000000000000000000000000000000000000000000000000000000000000000000000000000000000000000000000000000000000000000000000000000000000000000000000000000000000000000000000000000000000000000000000000000000000000000000000000000000000000000000000000000000000000000000000000000000000000000000000000000000000000000000000000000000000000000000000000000000000000000000000000000000000000000000000000000000000000000000000000000000000000000000000000000000000000000000005400000000000000000000000000000000000000000000000000000000000000000000000000000000000000000000000000000000000000000000000000000000000000000000000000000000000000000000000000000000000000000000000000000000000000000000000000000000000000000000000000000000000000000000000000000000000000000000000000000000000000000000000000000000000000000000000000000000000000000000000000000000000000000000000000000000000000000000000000000000
#047370:0000000000120000
#0473b0:00000000000000000000000000522200
#0473a0:000000000000000000000000000000000000000000000000000000000000000000000000000000000000000000000000000000000000000000000000000000000000000000000000000000000000000000000000000000000000000000000000000000000000000000000000000000000000000000000000000000000000000000000000000000000000000000000000000000000000000000000000000000000000000000000000000000000000000000000000000000000000000000000000000000000000000000000000000000000000000000000000000000000000000000000000000000000000000000000000000000000000000000000000000000000000000000000000000000000000000000000000000000000000000000000000000000000000000000000000000000000000000000000000000000000000000000000000000000000000000000000000000000000000000000000000000000000000000000000000000000000000000000000000000000000000000000000000000000000000005400000000000000000000000000000000000000000000000000000000000000000000000000000000000000000000000000000000000000000000000000000000000000000000000000000000000000000000000000000000
#047371:0000000000000013
#048331:000000000000000000000000000000000000000000000000000000000000000000000000005300000000000000000000000000000000000000000000230000000000000000000000000000000000000000000000000000000000000000000000000000000000000000000000000000000000000000000000000000000000000000000000000000000000000000000000000000000000000000000000000000000000000000000000000000000000000000000000000000000000000000000000000000000000000000000000000000000000000000000000000000000000000000000000000000000000000000000000
#048321:0000000000550000000000000000000000000000000000000000000000000000
#048321:00001333
#048371:0000000000330033
#049321:33230000
#049371:0033000000000000
#049360:00130000
#0493b0:0000005323000000
#049370:00000013
#049320:0000000000000053
#050370:23
#0503b0:00001333
#050360:0000000000330033
#0513b0:33230000
#051360:0033000000000000
#051371:00130000
#051321:0000005323000000
#051361:00000013
#0513b1:0000000000000053
#052361:23
#052361:00140000
#052341:0000005400000000
#0523a1:0024
#052320:00140000
#052340:0000000000000000003400000000000000000000000000000000000000000000
#052360:0000000000000000000034000000003424000000000000000000000000000000
#052380:0000000000000000000000340034000000000000000000000000000000000000
#052390:0000003400000000
#052370:00000000000000340000000000000000
#052360:00000013
#052380:0000000000000053
#053320:23
#0523a1:00000013
#052381:0000000000000000000000000000000000000000000000000033000000000000
#052361:0000000000000000000000000000000000000000000000000000330000000033
#052341:0000000000000000000000000000000000000000000000000000003300330000
#052331:0000000000000033
#052351:00000000000000000000000000000033
#053361:23
#056371:0013
#056321:00000000000000000000002300000000
#057371:0013
#057321:00000000000000000000002300000000
#058361:0013
#0583b1:00000000000000000000002300000000
#059361:0013
#0593b1:00000000000000000000002300000000
#060371:00000000000000001300002300000000
#0603b1:000000000000005300000000
#060320:00000000000000001300002300000000
#060360:000000000000005300000000
#061360:00000000000000001300002300000000
#061320:000000000000005300000000
#0613b1:00000000000000001300002300000000
#061371:000000000000005300000000
#0633a1:000000000000000000000000000000000000145454545454545454545454240000000000000000000000000000000000
#0633b1:000000000000000000000000000000000000000000000000000000000000000000000000005200520052005200520052005200520052005200520052000000000000000000000000000000000000000000000000000000000000000000000000
