This file was generated by Ched 2.7.0.0.
#TITLE ""
#ARTIST ""
#DESIGNER ""
#DIFFICULTY 0
#PLAYLEVEL
#SONGID ""
#WAVE ""
#WAVEOFFSET 0
#JACKET ""
#REQUEST "ticks_per_beat 480"
#00002: 4
#BPM01: 176
#00008: 01
#TIL00: ""
#HISPEED 00
#MEASUREHS 00
#00718:00140000
#00714:14
#00712:0000000000000024
#00514:14
#00510:41
#00418:14
#00314:14
#00918:0014
#0091a:14
#00914:00140000
#00912:00000014
#01018:14000014
#01012:0014
#01112:14
#01118:00140000
#0111a:00000014
#01114:0014
#01214:14000014
#0121a:0014
#01318:1414
#01314:00000014
#01312:00140000
#0161a:0014
#01714:14
#01718:0014
#01812:14
#01818:0014
#01914:14
#0191a:0014
#02514:14
#02518:00140000
#02512:0014
#0261a:1414
#02614:00140000
#02712:1414
#02718:00140000
#03112:14
#03118:00140000
#03114:0014
#03812:0014
#03814:0000000000000014
#03918:0014
#03914:00000014
#04018:14
#0401a:00000014
#04014:0024
#0401f:0021
#04112:14
#04118:00140000
#04114:0024
#0411a:00000024
#04110:0041
#04218:0014
#04212:00000014
#04214:00140000
#0431a:14
#04314:00140000
#04318:0014
#04312:00000014
#04612:0014
#0461a:00000014
#04714:14
#04718:0000001400000000
#04719:0000000000340000
#05514:00140000
#05518:14
#0551a:0000000000000024
#03218:2614
#0321f:0011
#03212:00260000
#0321a:00000034
#0331a:34140000
#03318:00003434
#03414:0014
#03412:00000034
#03512:34140000
#03514:00003434
#0481a:00000014
#04814:0024
#04912:14
#04918:00140000
#04914:0024
#0491a:00000024
#05018:0014
#05012:00000014
#05014:00140000
#05010:0041
#0511a:14
#05114:00140000
#05118:0014
#05112:00000014
#04414:0014
#0441a:00140000
#04518:0014
#0521a:00241400
#05214:00000024
#05314:14
#00814:00000014
#0081a:0024
#0141a:14
#01412:00000034
#01410:41
#05714:0014
#05712:14
#05718:00140000
#0571a:00000014
#05814:14000014
#0581a:0014
#0591a:14
#05914:00140000
#05912:00000014
#05918:0014
#06018:14000014
#06012:0014
#06114:1414
#06118:00000014
#0611a:00140000
#05618:00000014
#05612:0024
#06212:14
#06218:0000000000003636
#00214:28
#02412:24
#0241a:0024
#0301a:24
#03014:00240000
#03018:0024
#03010:0041
#03619:0025
#06415:00260000
#01512:34
#06318:3636360000000000
#02210:0041
#00254:18
#00554:14
#00458:14
#00354:14
#01554:0000000000000014
#03854:0000000000000024
#03852:0054
#05358:0000000000000014
#06455:00160000
#02552:0014
#03258:0054
#0335a:00240000
#03454:0064
#03552:00240000
#04154:0014
#0415a:00000014
#04358:0014
#04352:00000014
#05158:0014
#05152:00000014
#04954:0014
#0495a:00000014
#04454:0064
#04558:0054
#0475a:0000000000000014
#04758:0000006400000000
#0265a:0014
#02752:0014
#02858:0014
#02954:0014
#0245a:0014
#03058:0014
#0555a:0000000000000014
#00752:0000000000000014
#03154:0014
#000360:14
#002340:28
#0063a0:0014000000000000
#006390:00340000
#006380:0000003400002400
#007320:0000000014343424
#014320:00001434
#015320:34
#015340:0000343400340024
#020340:14
#020320:0024
#0213a0:14
#021380:0024
#022320:14
#022340:0024
#023380:14
#0233a0:0024
#0283a0:14
#028380:00342400
#029320:14
#029340:00342400
#032380:0014
#0323a0:00000034
#0333a0:34340000
#033380:00003434
#034380:24
#034340:0014
#034320:00000034
#035320:34340000
#035340:00003434
#036340:24
#036390:0015
#036380:0000000000000035
#037390:00350000
#037380:0000000000350000
#038390:25
#038320:0014
#038340:0000000000000054
#039320:00240000
#044340:0014
#045320:24
#045380:0014
#0463a0:24
#047380:0000143400000000
#047390:0000000000340000
#0473a0:0000000000000024
#053380:0000143400340024
#054320:0014000000000000
#054330:00340000
#054340:0000003400002400
#0553a0:0000000014343424
#062380:0000000000163636
#063380:3636360000000000
#063350:0000003600000000
#064350:00260000
