This file was generated by Ched 2.6.4.0.
#TITLE ""
#ARTIST ""
#DESIGNER ""
#DIFFICULTY 0
#PLAYLEVEL
#SONGID ""
#WAVE ""
#WAVEOFFSET 0
#JACKET ""
#REQUEST "ticks_per_beat 480"
#00002: 4
#BPM01: 135
#00008: 01
#TIL00: ""
#HISPEED 00
#MEASUREHS 00
#00012:14
#00112:14
#0021a:14
#0081a:14
#00810:41
#00912:14
#0101a:14
#01112:14
#01218:14
#01314:14
#01418:14
#01514:14
#03218:2616
#0321f:21
#0031a:14
#0161a:14
#01712:14
#0181a:14
#01912:14
#01910:41
#02018:14
#02114:14
#02218:14
#02314:14
#03312:1616
#03310:41
#03418:16
#03412:0016
#03818:0016
#03812:16
#03718:1616
#03612:1616
#04212:1616
#04118:1616
#04012:0016
#04018:26
#04618:1616
#04418:0016
#04412:16
#05118:14
#05212:14
#0531a:14
#05414:14
#05518:14
#05612:2616
#04512:1616
#06018:1616
#06010:41
#05818:0016
#05812:16
#06212:0016
#06218:16
#06418:0016
#06412:26
#06812:0016
#06818:16
#07514:14
#0241f:11
#04810:41
#07110:41
#004320:14
#007340:24
#0243a0:14
#0253a0:24
#026320:14
#027320:24
#028380:14
#029380:24
#030340:14
#031340:24
#035380:1626
#039320:1626
#043380:1626
#047320:16
#048320:36
#050320:26
#057380:1626
#059320:1626
#061320:1626
#063380:1626
#065320:1626
#066380:1626
#067320:1626
#069380:1626
#070320:1626
#071380:16
#072380:36
#074380:26
#0763a0:14
#078380:34
#0793a0:0000000000000024
