This file was generated by Ched 2.6.4.0.
#TITLE ""
#ARTIST ""
#DESIGNER ""
#DIFFICULTY 0
#PLAYLEVEL
#SONGID ""
#WAVE ""
#WAVEOFFSET 0
#JACKET ""
#REQUEST "ticks_per_beat 480"
#00002: 4
#BPM01: 135
#00008: 01
#TIL00: ""
#HISPEED 00
#MEASUREHS 00
#0001a:14141414
#00016:0013000000000013
#00014:00130013
#00012:0000001300130000
#0011a:14141414
#00116:0013000000000000
#00114:00130000
#00112:0000001300001400
#00115:0000000000130000
#00118:0000000000000013
#00212:14141414
#00217:0013000000000013
#00219:00130013
#0021b:0000001300130000
#00516:0013
#00514:0000000000130013
#00512:0013001300001300
#00515:00130000
#00816:0013001300000000
#00812:00130000
#00817:0000000000130013
#0081b:00000013
#00810:41
#00916:0013000000130000
#00917:0000001300000013
#01218:0013001300000000
#01215:00130000
#01217:0000000000000013
#01212:23001313
#0121b:23
#01314:0013000000000000
#01316:00131300
#01318:0000001300000000
#0131b:00131300
#01319:0000000000130000
#01317:13000013
#01315:0000000000000013
#01312:13000013
#01412:1300000000131300
#01417:13000013
#0141b:0000131300000000
#01416:0000001300000000
#02015:0013001300001300
#02018:0000130000130013
#02012:13131300
#0201b:13001313
#02119:0013000000000000
#02117:00131300
#02115:0000001300000000
#02114:0000000000130000
#02116:13000013
#02118:0000000000000013
#02112:00131300
#0211b:13000013
#02412:24141414
#0241b:0000130000001313
#02417:13
#0241f:11
#02816:13
#02812:0000130000001313
#0281a:24141414
#02512:14141414
#02517:00130000000000000000000013000000
#02519:0000000000000013
#0251b:0000001300000000
#02612:14141414
#02617:0000001300000000
#0261b:13
#0321b:0000000013130000
#03216:0000230013130000
#03217:2300000000000013
#03212:24
#0321f:21
#03316:0013000000000000
#03319:00130013
#03317:0000001300000013
#0331b:0000000000130000
#03314:00130013
#03312:0000001300000013
#03310:41
#03612:0000230000130000
#03617:0000000000130000
#03616:2300000000000013
#0361b:2313
#0361b:0013
#03717:0013000000130000
#03714:00130013
#03716:0000001300000013
#03712:0000000000130000
#03719:0013
#0371b:0000001300000013
#03812:00130013
#0381b:0013
#03817:00230000
#03417:00130013
#03416:0013
#03412:00230000
#05416:00000013000000000000001400000014
#0541b:1313230000000000
#05412:2300001323000014
#05417:00000000000000130000000000000000
#0541a:0000000000142400
#05712:0013000000000013
#05714:00130013
#05719:00130013
#0571b:1300001300000000
#05717:0000000013000013
#05716:0000001300130000
#05616:0000001300130000
#05617:0013000023000013
#0561b:2300000000230000
#05612:23230000
#06017:0013000000130000
#06016:2300000013000013
#0601b:2323
#06012:0000230000230000
#06010:41
#0631b:0013002300000000
#06316:0013002300000000
#06312:23000000000000000013000000000000
#06317:23000000000000000013000000000000
#07212:0013001300130013
#07217:0013001300130013
#07214:00140014
#0721a:2424
#07312:0013001300000000
#07317:0013001300000000
#07314:0000140000130013
#07319:0000000000130013
#0731a:2424
#07316:00000024
#0741b:0013001300130013
#07416:0013001300130013
#07418:00140014
#07412:2424
#0751b:0013001300000000
#07516:0013001300002400
#07518:00140000
#07519:0000000000130013
#07514:0000000000130013
#07512:2424
#07612:0014001400140014
#07615:00140014
#07618:26
#07712:0013001300130013
#07715:00130013
#0781b:0013001300130013
#07818:00130013
#07812:26
#0791c:0012001200120012
#07919:00120012
#01514:0013001300130013
#01512:1313
#01516:00130013
#0291a:14141414
#02916:00130000000000000000000013000000
#02914:0000000000000013
#02912:0000001300000000
#0301a:14141414
#03016:0000001300000000
#03012:13
#03516:1300001300000000
#0351b:1300001300000000
#03517:0013130000000000
#03512:0013130000000000
#05912:13000000130000000013000000000000
#05917:13000000130000000013000000000000
#0591b:0013001300000000
#05916:0013001300000000
#05216:00000013000000000000000000000000
#05217:00000000000000000013000000000000
#0521b:0000001300000000
#05212:13000013
#05312:13000013000000001300000013000000
#0531b:1300001313001300
#05318:0000000000130000
#05315:0000000000000013
#05016:2414001424140014
#05012:00142300
#0501a:00000014
#0501b:23
#05812:00000013
#0581b:00230000
#07112:0013002300000000
#07117:0013002300000000
#0711b:23000000000000000013000000000000
#07116:23000000000000000013000000000000
#07110:41
#04012:0000000013130000
#04017:0000230013130000
#04016:2300000000000013
#0401a:24
#04117:0013000000000000
#04114:00130013
#04116:0000001300000013
#04112:0000000000130000
#04119:00130013
#0411b:0000001300000013
#0441b:0000230000130000
#04416:0000000000130000
#04417:2300000000000013
#04412:2313
#04412:0013
#04516:0013000000000000
#04519:00130013
#04517:0000001300000013
#0451b:0000000000130000
#04512:0000001300000013
#0461b:00130013
#04612:0013
#04616:00230000
#04217:0013
#04216:00130013
#0421b:00230000
#04317:1300001300000000
#04312:1300001300000000
#04316:0013130000000000
#0431b:0013130000000000
#0611b:0013001300001300
#06116:0000001300001300
#06117:0000130000000013
#06112:1300130000130013
#0621b:00000013
#06216:00230000
#03912:23000000000000000013000000000000
#03917:23000000000000000013000000000000
#0391b:0000001300000000
#03916:0000231300000000
#01016:0013001300000000
#01012:00130000
#01017:0000000000130013
#0101b:00000013
#01117:0013000000130000
#01116:0000001300000000
#0111b:2323
#01112:00230023
#0171b:0013000000130000
#01712:0000001300000013
#01716:00130013
#01717:0013
#01614:0000001300000013
#01619:0013000000130000
#0161b:23
#0181b:0013001300000000
#01817:00130000
#01812:0000000000130013
#01816:00000013
#01916:0013000000130000
#01917:0000001300000000
#0191b:00230023
#01912:2323
#01910:41
#0471b:23000000000000000013000000000000
#04716:23000000000000000013000000000000
#04712:0000001300000000
#04717:0000231300000000
#0221b:13000013
#02216:13000013
#02217:0000001300000000
#02212:0000131300000000
#0231b:1313
#02319:0013001300130000
#02317:0000130000001313
#03112:1414
#0311a:00140014
#03116:24242424
#00717:0013
#00719:0000000000130013
#0071b:0013001300001300
#00718:00130000
#0061b:0013001300130013
#00618:00130013
#00612:26
#00412:0013001300130013
#00415:00130013
#0041c:22
#0271b:1313
#02712:00130013
#02716:2323
#02717:00230023
#0651b:0013000000000013
#06519:00130013
#06514:00130013
#06512:1300001300000000
#06516:0000000013000013
#06517:0000001300130000
#06417:0000001300130000
#06416:0013000023000013
#06412:2300000000230000
#0641b:23230000
#06816:0013000000130000
#06817:2300000013000013
#06812:2323
#0681b:0000230000230000
#0671b:13000000130000000013000000000000
#06716:13000000130000000013000000000000
#06712:0013001300000000
#06717:0013001300000000
#0661b:00000013
#06612:00230000
#06912:0013000013000013
#06918:0000000000130013
#0691b:13131300
#06915:0000001300001300
#07012:00000013
#07017:00230000
#00315:00002300000023000000002300000000
#00318:0000230023000023
#0481b:23
#04817:2222
#04812:0023
#04810:41
#0491b:23
#04916:2424
#04912:0023
#0551a:0000002400000000
#05512:24
#05112:000024240000240000000000
#0511a:240000000024000000240000
#05116:002400002400000000000000
#00358:0053
#00355:00000000000000000000006300000000
#01452:53000013
#0145b:0000006300000000
#01457:13000053
#01456:0000001300000000
#02852:0000230000000053
#02856:53
#02657:0000005300000000
#0265b:53
#03852:00630000
#0385b:0053
#03457:00630000
#03456:0053
#0555a:00000014
#05552:00000014
#05656:0000002300630000
#05657:0023000000000053
#05652:1300630000000013
#0565b:53430000
#06057:0023000000530000
#0605b:5300430000000013
#06056:1300000000000063
#0635b:0023005300004300
#06356:0023005300004300
#06357:63000000000000000023000000000000
#06352:63000000000000000023000000000000
#07658:56
#07852:66
#0245b:0000230000000063
#02457:63
#02557:00230000000000000000000000000000
#0255b:0000005300000000
#03056:0000006300000000
#03052:63
#02956:00230000000000000000000000000000
#02952:0000006300000000
#05256:14000023000000000000000000000000
#05257:00000000000000000023000000000000
#0525b:0000006300000000
#05252:63
#05352:00000063000000000000000000000000
#0535b:53
#03556:0000006300000000
#0355b:0000006300000000
#03557:00000013
#03552:00000013
#0595b:0000006300004300
#05956:0000006300004300
#05952:00000000000000000023000000000000
#05957:00000000000000000023000000000000
#07152:0023006300003300
#07157:0023006300003300
#0715b:53000000000000000023000000000000
#07156:53000000000000000023000000000000
#03256:0000000000530000
#03257:6300000000000063
#03252:14
#0325b:00130000
#03352:0000005300000000
#03657:0000130000530000
#03656:1300000000000053
#0365b:53
#03652:00630000
#0465b:00530000
#04652:0063
#04257:0063
#04256:00530000
#04357:0000005300000000
#04352:0000005300000000
#0435b:00000013
#04356:00000013
#04057:0000000000630000
#04056:5300000000000053
#0405a:14
#04052:00130000
#0415b:0000006300000000
#04456:0000130000630000
#04457:1300000000000063
#04452:63
#0445b:00530000
#0575b:2300006300000000
#05752:0000000000000013
#05757:0000000023000013
#06152:2300000000000013
#06157:0000000000000013
#0615b:0000006300000000
#03957:53000000000000000023000000000000
#03952:00000000000000000023000000000000
#0395b:0000006300004300
#03956:0000006300004300
#01157:0023000000230000
#01156:0000002300000000
#0115b:63006343
#01152:00530033
#01956:0023000000230000
#01957:0000002300000000
#0195b:00630043
#01952:53005333
#04552:0000006300000000
#0475b:00000000000000000023000000000000
#04756:63000000000000000023000000000000
#04752:0000005300003300
#04757:0000005300003300
#02256:13000063
#0225b:63
#02252:0000005300000000
#02257:0000001300000000
#03152:1414
#0315a:00140014
#0275b:1313
#02752:00130013
#06457:0000002300530000
#06456:0023000000000063
#0645b:1300530000000013
#06452:63330000
#06856:0023000000630000
#06857:1300000000000053
#06852:6300330000000013
#06752:0000005300003300
#06757:0000005300003300
#0675b:00000000000000000023000000000000
#06756:00000000000000000023000000000000
#06552:2300005300000000
#0655b:0000000000000013
#06556:0000000023000013
#06958:0000000000000013
#06952:0000000000000013
#0695b:23
#003380:0013
#0033b0:00000000000000000000002300000000
#003351:00000000000000000000001300000000
#003321:0000000000000023
#0043c1:12
#006381:26
#006320:16
#008320:22
#0083b1:1323
#008320:0013
#009320:23
#0093b1:13230000
#009320:00132300
#0093b1:00001323
#009320:00000013
#010320:23
#0103b1:1333003323000000
#010371:00330000
#010320:0000000013330033
#010360:00000033
#011320:23
#0113b1:13230000
#011371:0053000000000000
#011320:00132300
#011360:0000005300000000
#0113b1:00001323
#011371:0000000000530000
#0123b1:0013
#012371:00000023
#014321:13
#014361:00230000
#0143b1:0000001300000000
#014371:0000000000230000
#014371:00000013
#0153b1:00000023
#016321:13
#016361:00230000
#0163b0:00130000
#016370:0023
#016321:0013
#016361:00000023
#0163b0:00000013
#017370:23
#017321:1323000000000000
#0173b1:0000132300000000
#017321:0000000013230000
#0173b1:0000000000001323
#018321:13332300
#018361:0033003300000000
#0183b0:00001333
#018370:0000000000330033
#0193b0:23
#019321:13230000
#019361:0053000000000000
#0193b0:00132300
#019370:0000005300000000
#019321:00001323
#019361:0000000000530000
#0223b1:13
#022371:00230000
#022321:0000001300000000
#022361:00000033
#023321:00000023
#024371:1323
#0243b1:00530000
#0243b1:0000000000000013
#025371:00530000000000000000000000000000
#0253b1:00230000
#0253b1:0000001300000000
#025371:0000000000230000
#0263b1:13
#026371:00230000
#026371:0000001300000000
#0263b1:00000023
#028361:1323
#028321:00530000
#028321:0000000000000013
#029361:00530000000000000000000000000000
#029321:00230000
#029321:0000001300000000
#029361:0000000000230000
#030321:13
#030361:00230000
#030361:0000001300000000
#030321:00000023
#032371:13
#0323b1:00230000
#032361:0000000000130000
#032321:0000000000000023
#032370:0000000000000013
#0333b0:0023000000000000
#033320:0000001300000000
#033360:0000000000230000
#034370:00130000
#0343b0:0023
#034361:0013
#034321:00000023
#035361:0000001300000000
#035321:00000023
#0353b0:0000001300000000
#035370:00000023
#0363b0:13
#036370:00230000
#036321:00130000
#036361:0023
#036371:0000000000130000
#0363b1:0000000000000023
#036360:0000000000000013
#037320:0023000000000000
#038320:00130000
#038360:0023
#0383b1:0013
#038371:00000023
#039371:13000000000000000053000000000000
#0393b1:0000333300002300
#039360:0000001300002300
#039320:00000000000000000053000000000000
#040360:13
#040320:00230000
#040370:0000000000130000
#0403b0:0000000000000023
#040361:0000000000000013
#041321:0023000000000000
#0413b1:0000001300000000
#041371:0000000000230000
#042361:00130000
#042321:0023
#042370:0013
#0423b0:00000023
#043370:0000001300000000
#0433b0:00000023
#043321:0000001300000000
#043361:00000023
#044321:13
#044361:00230000
#0443b0:00130000
#044370:0023
#044360:0000000000130000
#044320:0000000000000023
#044371:0000000000000013
#0453b1:0023000000000000
#045321:0000001300000000
#045361:0000000000230000
#0463b1:00130000
#046371:0023
#046320:0013
#046360:00000023
#047360:13000000000000000053000000000000
#047320:0000333300002300
#047371:0000001300002300
#0473b1:00000000000000000053000000000000
#048371:0012002200000000
#048321:00320000
#0483b0:0013002300000000
#048360:00330000
#048370:0000000000120022
#0483c0:00000032
#048321:0000000000130023
#048371:00000033
#049361:0014002400000000
#049321:00340000
#0493b0:0013002300000000
#049370:00330000
#049360:0000000000140024
#0493a0:00000034
#049321:0000000000130023
#049361:00000033
#0503b1:0013002300000000
#050371:00330000
#050321:0000000000130023
#050361:00000033
#051321:0014
#051361:00000000000000000054000024000000
#0513a0:00000014
#051360:00000000000000000000000000540000
#052360:24
#052321:1300002300000000
#052361:00000053000000000000000000000000
#0523b0:0000001300002300
#052370:00000000000000000053000000000000
#0533b0:13
#053370:00000023000000000000000000000000
#053321:00000013000000000000000000000000
#053361:0000002300000000
#055321:1454545454545454545454545454545454545454545454542400000000000000
#055341:00540054005400540054005400540054005400540054005400540054005400540054005400540054005400540054005400000000000000000000000000000000
#0553a0:0000000000000000000000001454545454545454545454542400000000000000
#055380:00000000000000000000000000000000000000000000000000540054005400540054005400540054005400540054005400000000000000000000000000000000
#0563b0:13230000
#056370:0053000000000000
#056321:00132300
#056361:0000005300000000
#056361:0000000000130000
#056321:0000000000000023
#056370:0000000000000013
#0573b0:53
#057370:0023000000000000
#0573b0:0000001300230000
#057370:0053
#058360:00130000
#058320:000053230000
#0583b1:0013
#058371:000000000000005300230000
#059361:0000001300002300
#059321:00000000000000000053000000000000
#0593b0:0000001300002300
#059370:00000000000000000053000000000000
#0603b0:13230000
#060370:0053000000000000
#060370:0000000000130000
#0603b0:0000000000000023
#060361:0000000000000013
#061321:53
#061361:0023000000000000
#0613b1:0000001300000000
#061371:0000000000230000
#0623b1:00130000
#062371:000053230000
#062320:0013
#062360:000000000000005300230000
#063370:13230000
#0633b0:0053000000000000
#063321:13230000
#063361:0053000000000000
#063361:0000001300002300
#063321:00000000000000000053000000000000
#0633b0:0000001300002300
#063370:00000000000000000053000000000000
#064320:13230000
#064360:0053000000000000
#0643b1:00132300
#064371:0000005300000000
#064371:0000000000130000
#0643b1:0000000000000023
#064360:0000000000000013
#065320:53
#065360:0023000000000000
#065320:0000001300230000
#065360:0053
#066370:00130000
#0663b0:000053230000
#066321:0013
#066361:000000000000005300230000
#067371:0000001300002300
#0673b1:00000000000000000053000000000000
#067320:0000001300002300
#067360:00000000000000000053000000000000
#068320:13230000
#068360:0053000000000000
#068360:0000000000130000
#068320:0000000000000023
#068371:0000000000000013
#0693b1:53
#069371:0023000000000000
#070321:00130000
#070361:000053230000
#0703b0:0013
#070370:000000000000005300230000
#071360:13230000
#071320:0053000000000000
#0713b1:13230000
#071371:0053000000000000
#071371:0000001300002300
#0713b1:00000000000000000053000000000000
#071320:0000001300002300
#071360:00000000000000000053000000000000
#076380:16
#0773b0:0000005300000023
#078320:16
#079320:0000005200000022
