This file was generated by Ched 2.6.4.0.
#TITLE ""
#ARTIST ""
#DESIGNER ""
#DIFFICULTY 0
#PLAYLEVEL
#SONGID ""
#WAVE ""
#WAVEOFFSET 0
#JACKET ""
#REQUEST "ticks_per_beat 480"
#00002: 4
#BPM01: 135
#00008: 01
#TIL00: ""
#HISPEED 00
#MEASUREHS 00
#0351b:13
#03515:0013000000000000
#03518:00130000
#03512:0000001300000000
#03615:0013
#03618:0000000000130000
#0361b:23
#05715:00130000
#05712:00000013
#0571b:0000001300000000
#05718:0000000000000013
#05912:13
#05915:0013000000000000
#05918:00000000130000000013000000000000
#0591b:0000001300000000
#06018:0013
#06015:0000000000130000
#06012:23
#0601b:23
#06010:41
#06115:00130013
#06118:0013001300000013
#07814:0012000000000000
#07816:0000120000000012
#07818:0000001200001200
#0781a:0000000000120000
#05012:1313
#0501b:1313
#05018:0013001300001300
#05015:0000130000130013
#05618:0000000023000013
#0561b:23
#05612:00230000
#05615:0000000000230000
#06218:00130000
#06212:00130000
#07412:0014000000000000
#07414:00140000
#07416:0000001400000014
#0741a:0000000000140000
#07418:00000014
#07612:0013000000000000
#07615:0000130000000013
#07618:0000001300001300
#0761b:0000000000130000
#07715:0013000000001300
#07718:0000130000130000
#0771b:0000001300000000
#07712:0000000000000013
#07916:0012000000001200
#07918:0000120000120000
#0791a:0000001200000000
#07914:0000000000000012
#03712:0013000000000013
#03715:00130013
#0371b:0013
#03718:0000001300130000
#03912:0000001300000000
#03918:0000001300000000
#03915:23
#0391b:23
#04717:24000014
#04712:24000014
#0471a:0000002400000000
#04715:0000002400000000
#04815:14
#0481a:14
#04810:41
#04917:14
#04912:14
#03215:0013
#0321b:0000000000130000
#03212:2300000000000013
#03218:00230000
#0321f:21
#03415:00130000
#03412:0013
#0341b:00130000
#03418:0013
#03318:00130013
#03315:0000001300000013
#03310:41
#04312:13
#04318:0013000000000000
#04315:00130000
#0431b:0000001300000000
#04418:0013
#04415:0000000000130000
#04412:23
#04518:0013001300000013
#04515:00130013
#04218:00130000
#0421b:0013
#04212:00130000
#04215:0013
#04018:0013
#04012:0000000000130000
#0401b:2300000000000013
#04015:00230000
#04115:00130013
#04118:0000001300000013
#05116:000034343434140000000000
#0511a:24
#05118:003400000000000000000000
#05212:13
#05216:0000001300000000
#05312:0013
#05315:0000000000130000
#05318:00000013
#0531b:0000000000000013
#05412:2313000000000000
#0541b:0000231300000000
#05418:0000000000002313
#05415:0000000023130000
#05518:0000001300000000
#05515:0000001300000000
#0551b:23
#05512:23
#06518:00130000
#0651b:00000013
#06512:0000001300000000
#06515:0000000000000013
#0671b:13
#06718:0013000000000000
#06715:00000000130000000013000000000000
#06712:0000001300000000
#06815:0013
#06818:0000000000130000
#0681b:23
#06812:23
#06918:00130013
#06915:0013000000130000
#06912:0000001300000013
#0691b:0013
#06415:0000000023000013
#06412:23
#0641b:00230000
#06418:0000000000230000
#07015:00130000
#0701b:00130000
#07218:0000000000000014
#07214:0000000000000014
#07212:24
#0721a:24
#07512:0014000000000000
#07514:00140000
#07516:0000001400000014
#0751a:0000000000140000
#07518:00000014
#0001b:0013001300000000
#00015:00130000
#00012:1300000000130013
#00018:00000013
#0011b:0013001300000013
#00115:0000130000130000
#00112:0013
#00118:00000013
#0021b:0000000000130013
#00215:00000013
#00212:0013001300000000
#00218:00130000
#0051b:0013
#00518:0000000000130000
#00515:00000013
#00512:0000000000000013
#00712:0013
#00715:0000000000130000
#00718:00000013
#0071b:0000000000000013
#0081b:0013000000000000
#00818:0000001300001300
#00815:0000130000130000
#00812:2300000000000013
#00810:41
#0091b:0013000000000000
#00915:00130000
#0091a:0000001300000000
#00914:0013
#00919:0000000000130000
#00913:00000013
#00918:0000000000000013
#01012:0013000000000000
#01018:0000130000130000
#01015:0000001300001300
#0101b:0000000000000013
#01112:2313
#01116:00130013
#0121b:0013000000000000
#01218:0000130000000013
#01215:0000001300000000
#01212:0013
#01315:0013000000001300
#01318:0000130000130000
#0131b:0000001300000013
#01312:0013
#01412:13000013
#0141b:0000001300000000
#01612:0013000000000000
#01615:0000001300001300
#01618:0000130000130000
#0161b:2300000000000013
#01712:0013000000000000
#01718:00130000
#01713:0000001300000000
#01719:0013
#01714:0000000000130000
#0171a:00000013
#01715:0000000000000013
#0181b:0013000000000000
#01815:0000130000130000
#01818:0000001300001300
#01812:0000000000000013
#0191b:2313
#01917:00130013
#01910:41
#02012:0013000000000013
#02015:00130013
#02018:0000001300130000
#0201b:0013
#02118:0013000000001300
#02115:0000130000130000
#02112:0000001300000013
#0211b:0013
#0221b:13
#02216:00000013
#02212:0000001300000000
#02417:0000001300000000
#0241b:13
#02412:0000000000000013
#0241f:11
#02515:00000013
#02518:0000000000000013
#02612:13
#02616:0000001300000000
#02812:13
#0281b:0000000000000013
#02816:0000001300000000
#03017:0000001300000000
#0301b:13
#02915:0000000000000013
#02918:00000013
#0271b:23
#02718:00230000
#02715:0023
#02712:00000023
#03112:23
#03115:00230000
#03118:0023
#0311b:00000023
#0631a:0000002400000000
#06312:24
#07112:0000002400000000
#0711a:24
#07110:41
#00315:0023002300000000
#00318:00230000
#0031a:0024
#00316:00000000000000000000002400000000
#00312:0000000000000024
#0041a:24
#05552:53000013
#0555b:63000013
#05558:0000005300000000
#05555:0000006300000000
#0595b:0000006300000000
#05958:00000000000000000023000000000000
#05658:0000000000000053
#0565b:13
#05652:00130000
#06258:00630000
#06252:00630000
#07252:54
#07258:0000000000000024
#07254:0000000000000024
#0725a:64
#0365b:63
#03658:0000000000530000
#0515a:64
#05156:0054
#03952:0000005300000000
#03955:63
#03958:0000005300000000
#0395b:63
#04752:54000054
#04757:54000054
#0475a:0000006400000000
#04755:0000006400000000
#04855:64
#0485a:64
#04957:24
#04952:24
#03455:00630000
#03452:0053
#0345b:00630000
#03458:0053
#03252:1300000000000053
#03258:00130000
#03552:0000005300000000
#04455:0000000000630000
#04452:53
#04258:00530000
#0425b:0063
#04252:00530000
#04255:0063
#0435b:0000006300000000
#0405b:1300000000000063
#04055:00130000
#03355:0000006300000000
#04158:0000005300000000
#04558:0000005300000000
#05252:53
#05256:0000006300000000
#0575b:0000006300000000
#05758:0000000000000013
#06158:0000005300000013
#06055:0000000000630000
#06052:53
#0605b:63
#0635a:0000006400000000
#06352:54
#06356:00000014
#06752:0000005300000000
#06755:00000000000000000023000000000000
#06455:0000000000000063
#06452:13
#0645b:00130000
#07055:00530000
#0705b:00530000
#06552:0000005300000000
#06555:0000000000000013
#06952:0000000000000013
#06858:0000000000530000
#0685b:63
#06852:53
#07152:0000005400000000
#0715a:64
#07156:00000014
#01152:5353
#01156:00530053
#01252:0053
#01452:53000053
#0145b:0000006300000000
#0195b:6363
#01957:00630063
#0225b:63
#02256:00000063
#02252:0000005300000000
#02457:0000002300000000
#0245b:63
#02452:0000000000000053
#02652:53
#02656:0000006300000000
#02852:53
#0285b:0000000000000063
#02856:0000002300000000
#03057:0000005300000000
#0305b:63
#004320:0013003300003300
#004350:0000330000330033
#005320:0033002300000000
#005350:00330000
#0063b0:0013003300003300
#006380:0000330000330033
#0073b0:0033002300000000
#007380:00330000
#011320:1333
#011360:00330033
#012320:23
#012320:0013
#012350:00000023
#014320:13
#014350:00230000
#0143b0:0000001300000000
#014380:0000000000230000
#014320:00000013
#015360:00000023
#0193b0:1333
#019370:00330033
#0203b0:23
#0223b0:13
#022380:00230000
#022320:0000001300000000
#022360:00000033
#023320:00000023
#0243b0:13000023
#024370:0000005300000000
#024320:0000000000000013
#025360:00230000
#0253b0:0000001300230000
#026320:13000023
#026360:0000003300000000
#028320:13000023
#028360:0000005300000000
#0283b0:0000000000000013
#029370:00230000
#029320:0000001300230000
#0303b0:13000023
#030370:0000003300000000
#032320:0000000000000013
#033350:0023000000000000
#033350:0000001300000000
#033320:0000000000230000
#034350:00130023
#034320:0033
#0343b1:00130023
#034381:0033
#035321:0000001300000000
#035361:00000023
#0363b1:13
#036381:00230000
#036381:0000000000130000
#0363b1:0000000000000023
#038321:00130000
#038351:0023
#038380:00130000
#0383b0:0023
#039350:13000023
#039320:0000333300000000
#0393b1:13000023
#039381:0000333300000000
#0403b1:0000000000000013
#041381:0023000000000000
#041381:0000001300000000
#0413b1:0000000000230000
#042381:00130023
#0423b1:0033
#042320:00130023
#042350:0033
#0433b0:0000001300000000
#043370:00000023
#044320:13
#044350:00230000
#044350:0000000000130000
#044320:0000000000000023
#045380:0000001300000000
#0453b0:0000000000230000
#0463b0:00130000
#046380:0023
#046351:00130000
#046321:0023
#047321:14
#047351:00240000
#047370:14
#0473a0:00240000
#047350:0000001400000000
#047320:00000034
#048350:34
#049320:54
#049350:00000024
#0473a1:0000001400000000
#047371:00000034
#0483a1:34
#049371:54
#0493a1:00000024
#0513a1:14000024
#051381:003400000000000000000000
#051361:000034343434340000000000
#052321:13000023
#052361:0000003300000000
#0533b1:13
#053391:00000033000000000000000000000000
#053371:0000002300000000
#055321:13000023
#055351:0000003300000000
#0553b0:13000023
#055380:0000003300000000
#056380:0000000000000013
#0573b0:0023000000000000
#0573b0:0000001300000000
#057380:0000000000230000
#058320:00130000
#058350:0023
#058381:0013
#0583b1:00000023
#0593b1:0000001300002300
#059381:00000000000000000053000000000000
#060321:13
#060351:00230000
#0603b0:13
#060380:00230000
#060350:0000000000130000
#060320:0000000000000023
#061380:0000001300000000
#0613b0:0000000000230000
#062320:00130000
#062350:0023
#062381:00130000
#0623b1:0023
#063321:14
#063361:00240000
#0633a1:0000001400000000
#063361:00000024
#064351:0000000000000013
#065321:0023000000000000
#065321:0000001300000000
#065351:0000000000230000
#0663b1:00130000
#066381:0023
#066350:0013
#066320:00000023
#067320:0000001300002300
#067350:00000000000000000053000000000000
#0683b0:13
#068380:00230000
#068321:13
#068351:00230000
#068381:0000000000130000
#0683b1:0000000000000023
#0703b1:00130000
#070381:0023
#070350:00130000
#070320:0023
#0713a0:14
#071360:00240000
#071320:0000001400000000
#071360:00000024
#072320:14
#072340:0000000000000054
#073320:00000024
#0723a1:14
#072381:0000000000000054
#0733a1:00000024
