This file was generated by Ched 2.6.4.0.
#TITLE ""
#ARTIST ""
#DESIGNER ""
#DIFFICULTY 0
#PLAYLEVEL
#SONGID ""
#WAVE ""
#WAVEOFFSET 0
#JACKET ""
#REQUEST "ticks_per_beat 480"
#00002: 4
#BPM01: 135
#00008: 01
#TIL00: ""
#HISPEED 00
#MEASUREHS 00
#0001a:14140000
#00012:00001414
#00118:14140000
#00114:00001414
#0021a:14140000
#00212:00001414
#00818:00140014
#00812:0014
#00810:41
#00914:1414
#0091a:00140014
#01012:1414
#01018:00140014
#0121a:14
#01214:00140000
#01218:0014
#01212:00000014
#01318:14
#01312:00140000
#0131a:0014
#01314:00000014
#0141a:14
#01412:00140000
#01418:0014
#01414:00000014
#01614:00140014
#0161a:1414
#01718:1414
#01712:00140014
#0181a:1414
#01814:00140014
#02012:14
#02018:00140000
#02014:0014
#0201a:00000014
#02114:14
#0211a:00140000
#02112:0014
#02118:00000014
#02212:14
#0221a:00140000
#02214:0014
#02218:00000014
#0251a:0014
#02514:00000014
#02712:14000014
#02716:00140000
#0271a:0014
#02912:0014
#02918:00000014
#0311a:14000014
#03116:00140000
#03112:0014
#03218:00160014
#03214:0014
#03212:26
#0321f:21
#03312:14000014
#0331a:00140000
#03316:0014
#03310:41
#03418:14
#03414:00140000
#03514:0000001400000000
#03612:00160000
#0361a:0014
#03614:00000014
#03618:26
#03718:1414
#03712:00140000
#03714:00000014
#0381a:14
#03812:00140000
#03914:14
#03912:0000001400000000
#04012:00160000
#04018:2614
#04014:00000014
#0411a:14000014
#04112:00140000
#04116:0014
#04214:14
#04218:00140000
#04318:0000001400000000
#04418:00160014
#04412:2614
#04514:1414
#0451a:00140000
#04518:00000014
#04612:14
#0461a:00140000
#04718:14
#0471a:0000001400000000
#0481a:14
#04816:0000000000000014
#04810:41
#05014:14
#0501a:00140000
#05012:0014
#05018:00000014
#05315:0014
#05312:0000000000000034
#05313:00000034
#05314:00000034000000000000340000000000
#0521a:14
#05217:0000001400000000
#0541a:00140000
#05414:0014
#05418:00000014
#05512:0000001400000000
#05612:00160000
#0561a:0014
#05616:00000014
#05618:26
#05812:14
#05818:00140000
#06018:00160014
#06014:0014
#06012:26
#06010:41
#06112:14
#06116:00140014
#0611a:0014
#06212:14
#0621a:00140000
#07114:14
#07112:0000001400000000
#07110:41
#07212:14
#07216:0000000000000014
#05712:14
#05716:00140014
#0571a:0014
#0591a:0000001400000000
#0631a:14
#06318:0000001400000000
#06418:00160000
#06412:2614
#06416:00000014
#0661a:14
#06614:00140000
#06812:00160000
#06818:2614
#06814:00000014
#0691a:14
#06916:00140014
#06912:0014
#0701a:14
#07012:00140000
#0651a:14
#06516:00140014
#06512:0014
#06712:0000001400000000
#0741a:14
#07412:00140000
#07418:0014
#07414:00000014
#0751a:14
#07512:00140000
#07518:0014
#07514:00000014
#01512:00140000
#0231a:00140000
#02412:14
#0241f:11
#0281a:14
#05114:00340000
#01910:41
#03252:16
#03554:0000006400000000
#03658:16
#03954:64
#03952:0000005400000000
#04358:0000005400000000
#04758:54
#0475a:0000006400000000
#04058:16
#04452:16
#0485a:64
#04856:0000000000000024
#05155:00000014
#05452:14
#05355:0064
#0525a:64
#05257:0000005400000000
#05554:00000014
#05552:0000005400000000
#07154:64
#07152:0000005400000000
#07252:54
#07256:0000000000000024
#05658:16
#06052:16
#0595a:0000006400000000
#0635a:64
#06358:0000005400000000
#06752:0000005400000000
#06452:16
#06858:16
#01454:00000064
#01552:00240000
#02258:00000054
#0235a:00240000
#02452:54
#0285a:64
#003380:1424
#004320:14
#006320:5a
#008320:24
#011320:14000024
#011340:00343400
#014340:00000014
#015320:00540000
#015340:00000024
#0193a0:14000024
#019380:00343400
#022380:00000014
#0233a0:00540000
#023380:00000024
#024320:14
#024350:0000000000003434
#025320:00240000
#0263a0:14000024
#026380:0000003400000000
#0283a0:14
#028370:0000000000003434
#0293a0:00240000
#030320:14000024
#030340:0000003400000000
#034380:00001424
#035340:1434343400000000
#035320:00000024
#0383a0:00001424
#039340:14000024
#039320:0000343400000000
#042340:00001424
#043380:1434343400000000
#0433a0:00000024
#046320:00001424
#047380:14000034
#0473a0:0000343400000000
#0483a0:34
#048360:0000000000000054
#0493a0:00000024
#051320:14
#051340:00340000
#051350:00003424
#0523a0:14000024
#052370:0000003400000000
#053320:1400000000000034
#053340:00000034000000000000340000000000
#053350:0000003434000000
#053330:00000034
#054320:24
#055320:1400003400000000
#055340:00000024
#058320:0014
#058340:00000024
#0593a0:1434343400000000
#059380:00000024
#062340:0014
#062320:00000024
#0633a0:14000024
#063380:0000343400000000
#0663a0:0014
#066380:00000024
#067320:1434343400000000
#067340:00000024
#070380:0014
#0703a0:00000024
#071340:14000034
#071320:0000343400000000
#072320:34
#072360:0000000000000054
#073320:00000024
#0763a0:1434
#076390:00340034
#0773a0:3434
#077390:00340024
#078320:1434
#078330:00340034
#079320:3434
#079330:0000340000003424
